<?xml version="1.0" standalone="no"?>
<!DOCTYPE svg PUBLIC "-//W3C//DTD SVG 1.1//EN" "http://www.w3.org/Graphics/SVG/1.1/DTD/svg11.dtd" >
<!--
2020-2-8: Created with FontForge (http://fontforge.org)
-->
<svg xmlns="http://www.w3.org/2000/svg" xmlns:xlink="http://www.w3.org/1999/xlink" version="1.1">
<metadata>
Created by FontForge 20170731 at Sat Feb  8 11:24:21 2020
 By root

</metadata>
<defs>
<font id="Flaticon" horiz-adv-x="512" >
  <font-face 
    font-family="Flaticon"
    font-weight="400"
    font-stretch="normal"
    units-per-em="512"
    panose-1="2 0 5 3 0 0 0 0 0 0"
    ascent="448"
    descent="-64"
    bbox="-0.00135769 -65.5029 513.002 448.002"
    underline-thickness="25.6"
    underline-position="-51.2"
    unicode-range="U+0020-F1FF"
  />
    <missing-glyph />
    <glyph glyph-name="space" unicode=" " horiz-adv-x="200" 
 />
    <glyph glyph-name="244-happy-3" unicode="&#xf1f3;" 
d="M437.02 373.02c48.3516 -48.3516 74.9805 -112.64 74.9805 -181.02s-26.6289 -132.668 -74.9805 -181.02c-48.3525 -48.3516 -112.64 -74.9805 -181.02 -74.9805s-132.667 26.6289 -181.02 74.9805c-48.3516 48.3516 -74.9805 112.64 -74.9805 181.02
s26.6289 132.668 74.9805 181.02c48.3525 48.3516 112.64 74.9805 181.02 74.9805s132.667 -26.6289 181.02 -74.9805zM256 -34c124.617 0 226 101.383 226 226s-101.383 226 -226 226s-226 -101.383 -226 -226s101.383 -226 226 -226zM400.6 207
c8.28418 0 15 -6.71582 15 -15c0 -88.0029 -71.5957 -159.6 -159.6 -159.6s-159.6 71.5967 -159.6 159.6c0 8.28418 6.71582 15 15 15h289.199zM256 62.4004c66.3887 0 121.279 50.1777 128.738 114.6h-257.476c7.45801 -64.4219 62.3486 -114.6 128.737 -114.6z
M170.21 299.01c2.79004 -2.7998 4.38965 -6.66016 4.38965 -10.6094c0 -3.9502 -1.59961 -7.81055 -4.38965 -10.6104c-2.79883 -2.79004 -6.66016 -4.38965 -10.6104 -4.38965s-7.80957 1.59961 -10.6084 4.38965c-2.79004 2.7998 -4.3916 6.66016 -4.3916 10.6104
c0 3.94922 1.60156 7.80957 4.3916 10.6094c2.79004 2.79004 6.65918 4.39062 10.6084 4.39062c3.9502 0 7.82031 -1.60059 10.6104 -4.39062zM363.009 299.01c2.79004 -2.7998 4.39062 -6.66016 4.39062 -10.6094c0 -3.9502 -1.60059 -7.81055 -4.39062 -10.6104
c-2.79883 -2.79004 -6.66016 -4.38965 -10.6094 -4.38965s-7.80957 1.59961 -10.6094 4.38965c-2.79004 2.79004 -4.39062 6.66016 -4.39062 10.6104c0 3.94922 1.60059 7.81934 4.39062 10.6094c2.79883 2.79004 6.66016 4.39062 10.6094 4.39062
s7.80957 -1.60059 10.6094 -4.39062z" />
    <glyph glyph-name="079-spreadsheet-4" unicode="&#xf14e;" 
d="M493.268 424.324c10.3457 0 18.7324 -8.38574 18.7334 -18.7314v-427.185c0 -10.3447 -8.38672 -18.7324 -18.7324 -18.7324h-474.536c-10.3457 0 -18.7324 8.3877 -18.7324 18.7324v427.185c0 10.3457 8.38672 18.7314 18.7324 18.7314h474.535zM237.448 -2.86133
v104.931h-199.985v-104.931h199.985zM237.448 139.534v104.932h-199.985v-104.932h199.985zM474.537 -2.86133h-0.000976562v104.931h-199.625v-104.931h199.626zM474.537 139.534h-0.000976562v104.932h-199.625v-104.932h199.626zM474.537 281.93h-0.000976562v104.932
h-437.073v-104.932h437.074z" />
    <glyph glyph-name="028-tools-and-utensils-1" unicode="&#xf11b;" 
d="M458.085 341.638c9.2207 0 16.6963 -7.47559 16.6973 -16.6953v-372.248c0 -9.22168 -7.47656 -16.6963 -16.6963 -16.6963h-297.807c-9.22168 0 -16.6963 7.47559 -16.6963 16.6963v36.4854h-36.4873c-9.2207 0 -16.6953 7.47656 -16.6953 16.6963v36.4863h-36.4854
c-9.2207 0 -16.6963 7.47559 -16.6963 16.6953v294.081c0 4.24414 1.67969 8.59473 4.8916 11.8057l78.168 78.165c2.99805 2.99902 7.24707 4.89062 11.8047 4.89062h219.638c9.22168 0 16.6963 -7.47559 16.6963 -16.6963v-36.4844h36.4873
c9.2207 0 16.6953 -7.47656 16.6953 -16.6963v-36.4854h36.4854zM115.387 390.998l-21.165 -21.1641h21.165v21.1641zM70.6104 75.7539h264.416v338.855h-186.248v-61.4717c0 -9.2207 -7.47656 -16.6953 -16.6963 -16.6953h-61.4717v-260.688zM123.792 22.5742h264.416
v338.854h-19.79v-302.369c0 -9.2207 -7.47559 -16.6953 -16.6963 -16.6953h-227.929h-0.000976562v-19.7891zM176.974 -30.6094h264.415v338.855h-19.79v-302.369c0 -9.2207 -7.47559 -16.6963 -16.6953 -16.6963h-227.93v-19.79z" />
    <glyph glyph-name="213-chat" unicode="&#xf1d4;" 
d="M512.443 202.358l0.0078125 -0.339844l-0.0078125 -0.34375c-1.52734 -66.9766 -29.0117 -129.395 -77.3789 -175.751c-47.1455 -45.1758 -108.696 -69.8828 -173.802 -69.8867c-1.64453 0 -3.27344 0.015625 -4.92188 0.046875h-0.375
c-29.7578 0 -59.0273 4.97656 -87.0781 14.8008l-49.7393 -31.0742c-4.02344 -2.51172 -8.59375 -3.8125 -13.2422 -3.8125c-1.71484 0 -3.4375 0.179688 -5.14844 0.535156c-11.5508 2.40625 -19.9375 12.8672 -19.9375 24.8789v61.8867
c-50.7422 45.4854 -79.9688 110.384 -80.3203 178.642v0.210938l0.00390625 0.210938c1.53125 66.9766 29.0117 129.396 77.3828 175.751c48.2969 46.2852 111.704 71.0938 178.587 69.8398c66.8594 1.23828 130.289 -23.5547 178.591 -69.8398
c48.3672 -46.3555 75.8516 -108.774 77.3789 -175.755zM414.286 47.6045c42.5088 40.7383 66.6963 95.5664 68.1299 154.414c-1.43359 58.8438 -25.6211 113.677 -68.1299 154.415c-42.5938 40.8164 -98.5469 62.6367 -157.516 61.4922l-0.296875 -0.00390625
l-0.296875 0.00390625c-58.9648 1.15625 -114.922 -20.6758 -157.513 -61.4922c-42.5469 -40.7734 -66.7344 -95.6494 -68.1328 -154.548c0.371094 -60.7695 26.875 -118.48 72.7383 -158.352c4.81641 -4.18359 7.57812 -10.2266 7.57812 -16.5791v-56.9258l45.458 28.3945
c5.78516 3.61328 12.7891 4.33203 19.2188 1.97656c26.0039 -9.53516 53.2422 -14.3516 80.918 -14.2891h0.164062l0.164062 -0.00390625c58.9805 -1.16406 114.922 20.6758 157.516 61.4971zM414.286 47.6045zM366.478 273.726
c8.29297 0 15.0156 -6.71875 15.0156 -15.0117s-6.72266 -15.0156 -15.0156 -15.0156h-220.008c-8.29004 0 -15.0127 6.72266 -15.0127 15.0156s6.72266 15.0117 15.0127 15.0117h220.008zM366.478 273.726zM366.478 207.312c8.29297 0 15.0156 -6.72266 15.0156 -15.0117
c0 -8.29297 -6.72266 -15.0156 -15.0156 -15.0156h-220.008c-8.29004 0 -15.0127 6.72266 -15.0127 15.0156c0 8.28906 6.72266 15.0117 15.0127 15.0117h220.008zM366.478 207.312zM366.478 140.897c8.29297 0 15.0156 -6.72266 15.0156 -15.0156
c0 -8.28906 -6.72266 -15.0117 -15.0156 -15.0117h-108.172c-8.28906 0 -15.0117 6.72266 -15.0117 15.0117c0 8.29297 6.72266 15.0156 15.0117 15.0156h108.172zM366.478 140.897z" />
    <glyph glyph-name="064-empty" unicode="&#xf13f;" 
d="M256 448c141.503 0 256 -114.509 256 -256c0 -141.503 -114.509 -256 -256 -256c-141.503 0 -256 114.509 -256 256c0 141.503 114.509 256 256 256zM256 -29.8672c122.337 0 221.867 99.5303 221.867 221.867s-99.5303 221.867 -221.867 221.867
s-221.867 -99.5293 -221.867 -221.867s99.5303 -221.867 221.867 -221.867z" />
    <glyph glyph-name="130-car" unicode="&#xf181;" 
d="M152.695 202.834c20.5947 0 37.3506 -16.7549 37.3496 -37.3496c0 -20.5957 -16.7549 -37.3506 -37.3496 -37.3506h-4.81055c-20.5947 0 -37.3496 16.7549 -37.3496 37.3506c0 20.5947 16.7549 37.3496 37.3496 37.3496h4.81055zM152.695 160.134
c2.94922 0 5.35059 2.40039 5.34961 5.35059c0 2.94922 -2.40039 5.34961 -5.34961 5.34961h-4.81055c-2.9502 0 -5.34961 -2.40039 -5.34961 -5.34961c0 -2.9502 2.39941 -5.35059 5.34961 -5.35059h4.81055zM363.667 202.834c20.5947 0 37.3506 -16.7549 37.3496 -37.3496
c0 -20.5957 -16.7549 -37.3506 -37.3496 -37.3506h-4.80859c-20.5957 0 -37.3506 16.7549 -37.3506 37.3506c0 20.5947 16.7549 37.3496 37.3506 37.3496h4.80859zM363.667 160.134c2.95117 0 5.35059 2.40039 5.34961 5.35059c0 2.94922 -2.39941 5.34961 -5.34961 5.34961
h-4.80859c-2.9502 0 -5.35059 -2.40039 -5.35059 -5.34961c0 -2.9502 2.40039 -5.35059 5.35059 -5.35059h4.80859zM281.104 181.484c8.83691 0 16 -7.16406 16 -16s-7.16309 -16 -16 -16h-50.2012c-8.83594 0 -16 7.16406 -16 16s7.16406 16 16 16h50.2012zM496 246.953
c8.83594 0 16 -7.16406 16 -16v-44.1182c0 -8.83594 -7.16406 -16 -16 -16h-50.6426v-115.953c0 -20.585 -16.7471 -37.333 -37.333 -37.333h-29.8301c-20.585 0 -37.333 16.7471 -37.333 37.333v29.1348h-169.719v-29.1348c0 -20.585 -16.7461 -37.333 -37.333 -37.333
h-29.8291c-20.5859 0 -37.333 16.7471 -37.333 37.333v115.953h-50.6475c-8.83594 0 -16 7.16406 -16 16v44.1182c0 8.83594 7.16406 16 16 16h55.7119l42.6064 109.31c2.39551 6.14453 8.31348 10.1895 14.9072 10.1895h253.557
c6.59375 0 12.5127 -4.04492 14.9082 -10.1895l42.6064 -109.31h55.7031zM66.6475 202.834v12.1182h-34.6475v-12.1182h34.6475zM140.161 334.452l-34.1074 -87.5h299.897l-34.1064 87.5h-231.684zM139.145 54.8809h0.00195312v29.1348h-40.4971v-29.1348
c0 -2.93945 2.3916 -5.33301 5.33301 -5.33301h29.8291c2.94043 0 5.33301 2.39258 5.33301 5.33301zM413.36 54.8809h0.000976562v29.1348h-40.4971v-29.1348c0 -2.93945 2.3916 -5.33301 5.33301 -5.33301h29.8301c2.93945 0 5.33301 2.39258 5.33301 5.33301z
M356.863 116.017v-0.000976562h56.4971c0 63.373 -0.0078125 84.9688 -0.0078125 98.9375h-314.704v-28.1182v-70.8193c6.86914 0 251.547 0 258.215 0.000976562zM480 202.834v12.1182h-34.6396v-12.1182h34.6396z" />
    <glyph glyph-name="014-asteroid" unicode="&#xf10d;" 
d="M498.642 434.711c23.2627 -23.2627 16.1025 -67.7559 -21.2832 -132.243c-8.71777 -15.0361 -18.8555 -30.7266 -30.2061 -46.834c23.1875 -70.0791 6.96582 -150.455 -48.6914 -206.111c-55.2568 -55.2568 -135.452 -72.0703 -206.112 -48.6914
c-16.1064 -11.3506 -31.7979 -21.4893 -46.834 -30.2061c-38.3477 -22.2314 -101.106 -52.4199 -132.242 -21.2842c-39.6182 39.6152 19.0312 133.008 51.4922 179.065c-23.1914 70.082 -6.97168 150.464 48.6885 206.124c55.6611 55.6582 136.042 71.8779 206.123 48.6865
c37.0146 26.0889 71.1523 45.2285 99.1338 55.5381c36.7959 13.5566 63.6904 12.1992 79.9316 -4.04395zM127.601 1.52637c8.65234 5.01465 17.543 10.5391 26.623 16.5146c-29.8252 17.4336 -54.8242 42.4443 -72.2363 72.2275
c-18.1631 -27.5371 -31.583 -52.5605 -39.2422 -73.3457c-9.25098 -25.1006 -8.05176 -38.4893 -4.21484 -42.3262c6.28516 -6.28613 35.1963 -4.30371 89.0703 26.9297zM187.179 41.1523c38.0449 28.2246 78.2119 63.1621 117.352 102.301
c39.1396 39.1396 74.0781 79.3057 102.302 117.351c-47.8242 105.208 -186.577 130.016 -268.123 48.4707c-81.5391 -81.541 -56.7461 -220.294 48.4697 -268.122zM373.205 74.7783c39.1113 39.1104 54.5518 93.0566 46.3418 143.892
c-26.0898 -33.1094 -56.4951 -67.2061 -89.7617 -100.473c-33.2676 -33.2676 -67.3633 -63.6709 -100.472 -89.7607c50.835 -8.20898 104.78 7.23242 143.892 46.3418zM446.457 320.381c31.2344 53.876 33.2168 82.7861 26.9277 89.0742
c-3.83887 3.83691 -17.2266 5.03516 -42.3262 -4.21484c-20.7842 -7.66016 -45.8066 -21.0811 -73.3457 -39.2432c29.8242 -17.4365 54.8174 -42.4482 72.2285 -72.2363c5.97656 9.07715 11.5 17.9678 16.5156 26.6201z" />
    <glyph glyph-name="099-clipboard" unicode="&#xf162;" 
d="M420.706 381.16c9.22168 0 16.6963 -7.47656 16.6973 -16.6963v-411.769c0 -9.22168 -7.47656 -16.6963 -16.6963 -16.6963h-329.415c-9.2207 0 -16.6963 7.47559 -16.6963 16.6963v411.767c0 9.2207 7.47656 16.6963 16.6963 16.6963h65.6582v8.96875
c0 9.2207 7.47559 16.6963 16.6963 16.6963h26.9346c7.18164 23.7979 29.3086 41.1768 55.418 41.1768s48.2363 -17.3789 55.418 -41.1748h26.9346c9.22168 0 16.6963 -7.47656 16.6963 -16.6963v-8.96875h65.6582zM190.342 373.432v-26.1719h131.314v26.1719h-24.4805
c-9.2207 0 -16.6953 7.47656 -16.6953 16.6963c0 13.499 -10.9824 24.4814 -24.4814 24.4814s-24.4814 -10.9824 -24.4814 -24.4814c0 -9.2207 -7.47559 -16.6963 -16.6953 -16.6963h-24.4805zM404.012 -30.6094h0.000976562v378.377h-48.9629v-17.2021
c0 -9.22168 -7.47559 -16.6963 -16.6963 -16.6963h-164.706c-9.22168 0 -16.6963 7.47559 -16.6963 16.6963v17.2021h-48.9629v-378.377h296.022h0.000976562zM322.148 247.024c9.21973 0 16.6943 -7.47559 16.6943 -16.6963s-7.47559 -16.6963 -16.6953 -16.6963h-132.297
c-9.2207 0 -16.6953 7.47656 -16.6953 16.6963c0 9.2207 7.47559 16.6963 16.6953 16.6963h132.298zM322.148 158.326c9.21973 0 16.6943 -7.47559 16.6943 -16.6963s-7.47559 -16.6963 -16.6953 -16.6963h-132.297c-9.2207 0 -16.6953 7.47656 -16.6953 16.6963
c0 9.2207 7.47559 16.6963 16.6953 16.6963h132.298zM322.148 69.6279c9.21973 0 16.6943 -7.47461 16.6943 -16.6963c0 -9.2207 -7.47559 -16.6953 -16.6953 -16.6953h-132.297c-9.2207 0 -16.6953 7.47461 -16.6953 16.6953c0 9.22168 7.47559 16.6963 16.6953 16.6963
h132.298z" />
    <glyph glyph-name="172-spreadsheet-10" unicode="&#xf1ab;" 
d="M494.14 161.135c9.86328 0 17.8604 -7.99707 17.8604 -17.8604v-142.917c0 -9.86328 -7.99609 -17.8604 -17.8604 -17.8604h-476.279c-9.86328 0 -17.8604 7.99609 -17.8604 17.8604v142.918c0 9.8623 7.99609 17.8594 17.8604 17.8594h20.0166v222.509
c0 9.86328 7.99609 17.8604 17.8604 17.8604h400.526c9.86328 0 17.8604 -7.99609 17.8604 -17.8604v-222.509h20.0156zM73.5967 365.784v-84.4678h364.807v84.4678h-364.807zM438.403 245.594h-164.697v-84.4561h164.697v84.4561zM237.985 18.2158v107.198h-202.265
v-107.198h202.265zM237.985 161.138v84.4561h-164.389v-84.4561h164.389zM476.279 18.2158v107.198h-202.573v-107.198h202.573z" />
    <glyph glyph-name="083-floppy-disk" unicode="&#xf152;" 
d="M506.513 323.88c3.51465 -3.51367 5.4873 -8.27832 5.48828 -13.2461v-355.901c0 -10.3457 -8.38672 -18.7324 -18.7324 -18.7324h-474.536c-10.3457 0 -18.7324 8.38672 -18.7324 18.7314v474.536c0 10.3457 8.38672 18.7324 18.7324 18.7324h355.901
c5.06348 0 9.83301 -2.07617 13.2402 -5.48242c0.00195312 -0.000976562 0.00390625 -0.00292969 0.00488281 -0.00390625zM156.098 410.537v-110.823h199.806v110.823h-199.806zM400.45 -26.5371v157.603h-288.9v-157.603h288.9zM474.537 -26.5371v329.412
l-81.1709 81.1709v-103.063c0 -10.3457 -8.3877 -18.7324 -18.7324 -18.7324h-237.268c-10.3447 0 -18.7324 8.38672 -18.7324 18.7324v129.555h-81.1709v-437.074h36.623v176.333c0 10.3447 8.38672 18.7324 18.7324 18.7324h326.363
c10.3457 0 18.7324 -8.3877 18.7324 -18.7324v-176.333h36.623zM309.514 392.985c10.3457 0 18.7324 -8.3877 18.7324 -18.7324v-38.2559c0 -10.3447 -8.38672 -18.7324 -18.7324 -18.7324s-18.7314 8.38672 -18.7314 18.7324v38.2559
c0 10.3447 8.38672 18.7324 18.7314 18.7324z" />
    <glyph glyph-name="041-image" unicode="&#xf128;" 
d="M216.74 315.388c28.3701 0 51.4502 -23.0801 51.4502 -51.4492c0 -28.3701 -23.0801 -51.4512 -51.4502 -51.4512s-51.4502 23.0801 -51.4502 51.4512c0 28.3682 23.0801 51.4492 51.4502 51.4492zM216.74 248.208c8.67285 0 15.7285 7.05566 15.7285 15.7305
c0 8.67285 -7.05566 15.7285 -15.7285 15.7285s-15.7295 -7.05566 -15.7295 -15.7285c0 -8.6748 7.05664 -15.7305 15.7295 -15.7305zM494.14 31.7129c9.86328 0 17.8604 -7.99707 17.8584 -17.8604c0 -9.8623 -7.99609 -17.8594 -17.8604 -17.8594h-42.1318v-42.1318
c0 -9.86328 -7.99609 -17.8604 -17.8594 -17.8604s-17.8604 7.99609 -17.8604 17.8604v42.1318h-338.435c-9.8623 0 -17.8594 7.99609 -17.8594 17.8594v338.435h-42.1318c-9.86328 0 -17.8604 7.99609 -17.8604 17.8604c0 9.86328 7.99707 17.8604 17.8604 17.8604h42.1328
v42.1318c0 9.86328 7.99609 17.8604 17.8594 17.8604s17.8604 -7.99707 17.8604 -17.8604v-42.1328h338.436c9.8623 0 17.8594 -7.99609 17.8594 -17.8594v-338.435h42.1318zM416.286 31.7129h-0.000976562v104.31l-63.9297 67.7695l-112.58 -119.348
c-7.04492 -7.46777 -18.9365 -7.47363 -25.9854 0l-54.0811 57.3359l-63.9961 -67.8457v-42.2217h320.573zM416.287 188.079h-0.000976562v164.208h-320.574v-226.293l51.0039 54.0713c7.04297 7.46777 18.9365 7.47266 25.9854 0l54.083 -57.3369l112.58 119.349
c7.04492 7.4668 18.9346 7.47266 25.9844 0z" />
    <glyph glyph-name="178-division" unicode="&#xf1b1;" 
d="M493.268 448c10.3457 0 18.7324 -8.38672 18.7334 -18.7324v-474.535c0 -10.3457 -8.38672 -18.7324 -18.7324 -18.7324h-474.536c-10.3457 0 -18.7324 8.38672 -18.7324 18.7314v474.536c0 10.3457 8.38672 18.7324 18.7324 18.7324h474.535zM474.537 -26.5371
h-0.000976562v437.074h-437.073v-437.074h437.074zM374.015 210.732c10.3457 0 18.7324 -8.3877 18.7324 -18.7324s-8.38672 -18.7324 -18.7324 -18.7324h-236.03c-10.3467 0 -18.7324 8.3877 -18.7324 18.7324s8.38672 18.7324 18.7324 18.7324h236.03zM219.862 308.149
c0 19.958 16.1797 36.1377 36.1377 36.1377s36.1377 -16.1797 36.1377 -36.1377c0 -19.959 -16.1797 -36.1387 -36.1377 -36.1387s-36.1377 16.1797 -36.1377 36.1387zM219.862 75.8506c0 19.959 16.1797 36.1387 36.1377 36.1387s36.1377 -16.1797 36.1377 -36.1387
c0 -19.958 -16.1797 -36.1377 -36.1377 -36.1377s-36.1377 16.1797 -36.1377 36.1377z" />
    <glyph glyph-name="057-point-at" unicode="&#xf138;" 
d="M433.933 58.5762c9.4043 0 17.0293 -7.625 17.0283 -17.0303v-88.5176c0 -9.40527 -7.625 -17.0293 -17.0293 -17.0293h-262.025c-9.40527 0 -17.0293 7.625 -17.0293 17.0293v88.5176c0 9.40527 7.625 17.0293 17.0293 17.0293h8.9209l-4.72949 11.9082
l-99.0098 88.6777c-16.8965 15.1328 -20.9316 39.5107 -9.81152 59.2812c13.5107 24.0225 44.5234 31.749 67.7285 16.8828l24.5898 -15.7578v176.478c0 28.6484 23.3076 51.9551 51.9551 51.9551c28.6484 0 51.9541 -23.3066 51.9541 -51.9551v-84.6953l129.825 -16.2061
c0.0546875 -0.00683594 0.109375 -0.0146484 0.164062 -0.0214844c24.1475 -3.25293 42.3555 -24.0791 42.3555 -48.4443l-0.00195312 -125.279c0 -6.20508 -1.16113 -12.2754 -3.45215 -18.043l-17.7842 -44.7793h19.3223zM99.8086 184.532l101.997 -91.3535
c1.96387 -1.75879 3.49316 -3.9502 4.4668 -6.39844l11.2021 -28.2051h160.489l22.7783 57.3516c0.693359 1.74902 1.04688 3.58887 1.04688 5.4707l0.00195312 125.279c0 7.36816 -5.48828 13.666 -12.7773 14.6816l-144.647 18.0576
c-8.52441 1.06543 -14.9199 8.30957 -14.9199 16.8984v99.7305c0 9.86816 -8.0293 17.8975 -17.8975 17.8975s-17.8965 -8.0293 -17.8965 -17.8975v-207.616c0 -13.4414 -14.9004 -21.5898 -26.2168 -14.3369l-50.8057 32.5576
c-6.76562 4.33887 -15.7432 2.07812 -19.6689 -4.90234c-3.22949 -5.74219 -2.05859 -12.8203 2.84766 -17.2148zM416.904 -29.9424v54.46h-227.969v-54.46h227.969z" />
    <glyph glyph-name="118-camera" unicode="&#xf175;" 
d="M495.304 311.254c9.22168 0 16.6963 -7.47461 16.6973 -16.6953v-273.489c0 -9.22168 -7.47559 -16.6963 -16.6963 -16.6963h-478.608c-9.22168 0 -16.6963 7.47559 -16.6963 16.6963v273.489c0 9.2207 7.47461 16.6953 16.6963 16.6953h28.8848v28.8867
c0 9.22168 7.47559 16.6963 16.6963 16.6963h91.1631c9.2207 0 16.6953 -7.47559 16.6953 -16.6963v-28.8867h53.4121l16.4229 56.3486c2.07715 7.12598 8.60742 12.0244 16.0293 12.0244h119.681c7.42188 0 13.9521 -4.89941 16.0293 -12.0244l16.4229 -56.3486h87.1709z
M268.524 346.235l-10.1963 -34.9824h115.022l-10.1943 34.9824h-94.6318zM78.9727 323.445v-12.1914h57.7734v12.1914h-57.7734zM478.609 37.7637h-0.000976562v240.1h-445.218v-240.1h445.219zM315.841 242.881c46.9072 0 85.0684 -38.1611 85.0693 -85.0674
c0 -46.9072 -38.1621 -85.0693 -85.0693 -85.0693c-46.9062 0 -85.0674 38.1621 -85.0674 85.0693c0 46.9062 38.1602 85.0674 85.0674 85.0674zM315.841 106.136c28.4951 0 51.6768 23.1826 51.6768 51.6777c0 28.4941 -23.1816 51.6758 -51.6768 51.6758
c-28.4941 0 -51.6758 -23.1816 -51.6758 -51.6758c0 -28.4951 23.1807 -51.6777 51.6758 -51.6777zM131.304 151.289c9.2207 0 16.6953 -7.47461 16.6953 -16.6963c0 -9.2207 -7.47559 -16.6953 -16.6963 -16.6953h-46.8877c-9.2207 0 -16.6963 7.47461 -16.6963 16.6953
c0 9.22168 7.47656 16.6963 16.6963 16.6963h46.8887zM131.304 101.578c9.2207 0 16.6953 -7.47559 16.6953 -16.6963s-7.47559 -16.6963 -16.6963 -16.6963h-46.8877c-9.2207 0 -16.6963 7.47559 -16.6963 16.6963s7.47656 16.6963 16.6963 16.6963h46.8887z" />
    <glyph glyph-name="202-linkedin" unicode="&#xf1c9;" 
d="M104.359 296.375c9.67188 0 17.543 -7.87109 17.543 -17.5469v-325.284c0 -9.67188 -7.87109 -17.543 -17.543 -17.543h-86.3125c-9.67578 0 -17.5469 7.87109 -17.5469 17.543v325.284c0 9.67578 7.87109 17.5469 17.5469 17.5469h86.3125zM91.8594 -33.9561v300.288
h-61.3164v-300.288h61.3164zM91.8594 -33.9561zM61.2031 448c33.7461 0 61.1992 -27.4531 61.1992 -61.1992c0 -33.75 -27.457 -61.2031 -61.1992 -61.2031c-33.75 0 -61.2031 27.4531 -61.2031 61.2031c0 33.7461 27.4531 61.1992 61.2031 61.1992zM61.2031 355.641
c17.1797 0 31.1562 13.9805 31.1562 31.1602s-13.9766 31.1562 -31.1562 31.1562c-17.1836 0 -31.1602 -13.9766 -31.1602 -31.1562c0 -17.1836 13.9766 -31.1602 31.1602 -31.1602zM61.2031 355.641zM401.046 258.238c35 -29.2148 55.0742 -72.0967 55.0742 -117.644
v-189.887c0 -8.12109 -6.58594 -14.707 -14.707 -14.707h-86.1289c-8.12109 0 -14.707 6.58594 -14.707 14.707v195.844c0 17.2148 -14.2578 31.1562 -31.5859 30.6445c-16.6719 -0.496094 -29.7266 -14.6133 -29.7266 -31.2969v-194.879
c0 -8.29297 -6.72656 -15.0195 -15.0234 -15.0195h-89.6162c-9.25391 0 -16.7578 7.5 -16.7578 16.7578v326.854c0 9.25391 7.50391 16.7578 16.7578 16.7578h87.8818c9.25391 0 16.7578 -7.50391 16.7578 -16.7578v-7.10156c14.832 7.3125 31.1992 11.3516 47.9492 11.6602
c26.9688 0.5 53.1992 -8.71094 73.832 -25.9336zM426.077 -33.9561v174.551c0 36.6172 -16.1367 71.0889 -44.2812 94.5811c-15.0859 12.5938 -34.2656 19.3359 -54.0273 18.9609c-19.7422 -0.367188 -38.7656 -7.78125 -53.5664 -20.8828
c-6.21094 -5.5 -15.707 -4.92188 -21.2021 1.28906c-2.53125 2.86328 -3.76172 6.41797 -3.75781 9.95703h-0.0195312v21.832h-61.3125v-300.288h61.3125v180.508c0 33.4688 27.2295 60.6982 60.6982 60.6982c33.4727 0 60.7031 -27.2295 60.7031 -60.6982v-180.508h55.4531
zM426.077 -33.9561z" />
    <glyph glyph-name="233-fire" unicode="&#xf1e8;" 
d="M369.215 288.186c36.2471 -22.0508 90.1729 -79.876 90.1738 -148.798c0 -54.0146 -21.1523 -104.978 -59.5625 -143.498c-38.5098 -38.6201 -89.5898 -59.8896 -143.831 -59.8896c-54.0244 0 -105.117 21.5752 -143.869 60.75
c-18.6074 18.8096 -33.2461 40.5781 -43.5117 64.6963c-10.6191 24.9473 -16.0029 51.1709 -16.0029 77.9395c0 56.9443 29.1006 120.632 68.0459 120.632c4.2793 0 8.35547 -1.82715 11.2021 -5.02344s4.19141 -7.45605 3.69629 -11.708
c-2.76758 -24.1133 -1.7666 -68.4355 12.709 -84.667c3.70605 -4.15527 7.88965 -6.00879 13.5635 -6.00879c4.97461 0 6.81445 0.978516 7.03613 1.24023c0.0654297 0.078125 1.61328 2.02246 1.28027 10.502c-0.310547 7.92285 -2.06152 17.998 -4.08984 29.665
c-3.14648 18.1055 -6.71289 38.626 -6.71289 60.8545c0 2.12793 -0.0830078 4.99414 -0.178711 8.30957c-0.866211 29.9385 -2.89648 100.045 40.8633 145.091c25.6084 26.3613 62.4463 39.7275 109.489 39.7275c5.35449 0 10.3027 -2.85254 12.9834 -7.4873
c2.68164 -4.63379 2.69043 -10.3447 0.0224609 -14.9863c-1.83984 -3.2627 -44.6953 -81.7393 46.6934 -137.341zM255.995 -34c95.6084 0 173.393 77.7812 173.394 173.387c0 56.1514 -46.4727 105.349 -75.7656 123.169c-60.5439 36.834 -72.9785 83.3154 -72.748 115.823
c0.103516 14.7539 2.79883 27.9307 5.9248 38.3115c-27.6895 -3.36133 -49.5781 -13.1836 -65.2549 -29.3223c-34.9229 -35.9492 -33.2139 -94.958 -32.3926 -123.316c0.101562 -3.55078 0.19043 -6.61621 0.19043 -9.17871c0 -19.6396 3.33105 -38.8066 6.27051 -55.7168
c4.83594 -27.833 8.65625 -49.8174 -3.79102 -64.6152c-6.6582 -7.91602 -16.75 -11.9297 -29.9932 -11.9297c-14.1758 0 -26.6172 5.55664 -35.9795 16.0693c-17.3545 19.4902 -21.2744 53.2256 -21.5254 77.9727c-2.24902 -3.2041 -4.52832 -7.00684 -6.74902 -11.4404
c-9.50879 -18.9746 -14.9629 -42.9678 -14.9629 -65.8252c0 -93.9863 79.3994 -173.388 173.383 -173.388z" />
    <glyph glyph-name="082-hash-key" unicode="&#xf151;" 
d="M493.268 448c10.3457 0 18.7324 -8.38672 18.7334 -18.7324v-474.535c0 -10.3457 -8.38672 -18.7324 -18.7324 -18.7324h-474.536c-10.3457 0 -18.7324 8.38672 -18.7324 18.7314v474.536c0 10.3457 8.38672 18.7324 18.7324 18.7324h474.535zM474.537 -26.5371
h-0.000976562v437.074h-437.073v-437.074h437.074zM362.683 153.172c24.7793 0 24.752 -37.4639 0 -37.4629h-36.9443l-4.26074 -32.8037c-3.23828 -24.9541 -40.3291 -19.6436 -37.1504 4.82324l3.63379 27.9805h-77.3418l-4.25977 -32.8037
c-3.19238 -24.5869 -40.3379 -19.7129 -37.1514 4.82324l3.63281 27.9805h-23.5254c-24.7783 0 -24.752 37.4629 0 37.4629v0h28.3896l10.084 77.6582h-38.4736c-24.7783 0 -24.752 37.4629 0 37.4629h43.3389l4.25977 32.8037
c3.18945 24.5723 40.3389 19.7227 37.1514 -4.82324l-3.63379 -27.9805h77.3438l4.25977 32.8037c3.18945 24.5791 40.3389 19.7178 37.1504 -4.82324l-3.63379 -27.9805h17.1309c24.7783 0 24.752 -37.4629 0 -37.4629h-21.9961l-10.084 -77.6582h32.0801zM292.827 153.17
l10.084 77.6582h-77.3428l-10.084 -77.6582h77.3428z" />
    <glyph glyph-name="217-image-2" unicode="&#xf1d8;" 
d="M373.409 448c76.418 0 138.59 -62.1719 138.59 -138.594v-234.812c0 -76.4219 -62.1719 -138.594 -138.59 -138.594h-234.815c-76.4219 0 -138.594 62.1719 -138.594 138.594v234.812c0 76.4219 62.1719 138.594 138.594 138.594h234.815zM481.983 74.5947h-0.00390625
v68.9492l-111.082 117.05c-1.80469 1.90234 -3.95703 2.05469 -5.07812 1.98828c-1.12109 -0.0742188 -3.23438 -0.515625 -4.77734 -2.63281l-116.249 -159.847c-6.10547 -8.39062 -15.5234 -13.7969 -25.8477 -14.8281
c-10.3281 -1.02734 -20.6289 2.39844 -28.2695 9.41406l-65.875 60.4766c-2.4375 2.23828 -6.25781 2.23828 -8.69531 -0.00390625l-86.0898 -79.25v-1.31641c0 -59.8711 48.707 -108.578 108.578 -108.578h234.812c59.8711 0 108.578 48.707 108.578 108.578z
M481.983 187.146v122.261c0 59.8711 -48.707 108.578 -108.574 108.578h-234.815c-59.8711 0 -108.578 -48.707 -108.578 -108.578v-192.698l65.7617 60.5352c13.8203 12.7227 35.4844 12.7422 49.3242 0.03125l65.875 -60.4727
c1.84375 -1.69531 3.91406 -1.76562 4.98047 -1.66016c1.07031 0.105469 3.08594 0.589844 4.55859 2.61328l116.253 159.847c6.38672 8.78125 16.2617 14.2227 27.0938 14.9297c10.8477 0.707031 21.3359 -3.40234 28.8086 -11.2773zM481.983 187.146zM142.91 361.266
c29.0859 0 52.75 -23.6641 52.7461 -52.75c0 -29.082 -23.6602 -52.7461 -52.7461 -52.7461c-29.082 0 -52.7461 23.6641 -52.7461 52.7461c0 29.0859 23.6641 52.75 52.7461 52.75zM142.91 285.789c12.5352 0 22.7305 10.1953 22.7305 22.7305
s-10.1953 22.7305 -22.7305 22.7305c-12.5312 0 -22.7305 -10.1992 -22.7305 -22.7305c0 -12.5352 10.1992 -22.7305 22.7305 -22.7305zM142.91 285.789z" />
    <glyph glyph-name="131-note" unicode="&#xf182;" 
d="M420.707 403.95c9.21973 0 16.6963 -7.47559 16.6963 -16.6953v-434.56c0 -9.22168 -7.47656 -16.6963 -16.6963 -16.6963h-329.414c-9.2207 0 -16.6963 7.47559 -16.6963 16.6963v434.559c0 9.2207 7.47656 16.6963 16.6963 16.6963h34.2012v27.3535
c0 9.22168 7.47559 16.6963 16.6963 16.6963s16.6953 -7.47559 16.6953 -16.6963v-27.3535h42.4805v27.3535c0 9.22168 7.47461 16.6963 16.6953 16.6963c9.22168 0 16.6963 -7.47559 16.6963 -16.6963v-27.3535h42.4824v27.3535c0 9.22168 7.47266 16.6963 16.6934 16.6963
c9.22168 0 16.6963 -7.47559 16.6963 -16.6963v-27.3535h42.4824v27.3535c0 9.22168 7.47559 16.6963 16.6953 16.6963c9.22168 0 16.6963 -7.47559 16.6963 -16.6963v-27.3535h34.2031zM404.011 -30.6094h0.000976562v401.168h-296.022v-401.168h296.021zM322.148 301.705
c9.2207 0 16.6953 -7.47461 16.6953 -16.6963c0 -9.2207 -7.47559 -16.6953 -16.6953 -16.6953h-132.297c-9.2207 0 -16.6953 7.47559 -16.6953 16.6953c0 9.22168 7.47559 16.6963 16.6953 16.6963h132.297zM322.148 186.671c9.2207 0 16.6953 -7.47461 16.6953 -16.6963
c0 -9.2207 -7.47559 -16.6953 -16.6953 -16.6953h-132.297c-9.2207 0 -16.6953 7.47461 -16.6953 16.6953c0 9.22168 7.47559 16.6963 16.6953 16.6963h132.297zM322.148 71.6348c9.2207 0 16.6953 -7.47461 16.6953 -16.6953
c0 -9.22168 -7.47559 -16.6963 -16.6953 -16.6963h-132.297c-9.2207 0 -16.6953 7.47461 -16.6953 16.6963c0 9.2207 7.47559 16.6953 16.6953 16.6953h132.297z" />
    <glyph glyph-name="154-ball" unicode="&#xf199;" 
d="M256 448c141.214 0 256 -114.445 256 -256c0 -141.503 -114.51 -256 -256 -256c-141.503 0 -256 114.509 -256 256c0 141.503 114.509 256 256 256zM378.442 376.925c-30.6885 20.3867 -66.71 33.3574 -105.495 36.2998
c16.5166 -14.8955 31.5586 -31.2236 44.9805 -48.7295c19.6992 5.85449 39.9277 10.0117 60.5146 12.4297zM64.832 79.5176c10.7617 62.5811 37.5947 119.746 76.3232 167.069c-4.48633 8.13086 -7.04688 17.4658 -7.04688 27.3916
c0 31.3691 25.5195 56.8896 56.8887 56.8896c12.0762 0 23.2764 -3.79297 32.4971 -10.2354c19.2227 12.585 39.4355 23.2148 60.4092 31.835c-18.1094 22.0303 -39.1592 41.7949 -62.7441 58.6553c-105.844 -16.7656 -187.026 -108.638 -187.026 -219.123
c0 -41.0273 11.207 -79.4785 30.6992 -112.482zM213.753 273.98c0 12.5479 -10.208 22.7559 -22.7559 22.7559s-22.7559 -10.208 -22.7559 -22.7559c0 -12.5488 10.208 -22.7568 22.7559 -22.7568s22.7559 10.209 22.7559 22.7568zM312.723 -22.5078
c22.0254 37.1191 36.5947 78.7266 42.5811 121.49c-21.4609 8.14746 -36.7578 28.916 -36.7578 53.1973c0 23.3906 14.1924 43.5215 34.4141 52.252c-7.95605 42.9102 -24.4531 83.541 -48.1172 119.604c-21.0254 -7.99219 -41.25 -18.2021 -60.4111 -30.5234
c2.23438 -6.09277 3.45508 -12.6738 3.45508 -19.5342c0 -31.3682 -25.5195 -56.8887 -56.8887 -56.8887c-8.99707 0 -17.5068 2.10938 -25.0781 5.84277c-41.8477 -51.9736 -66.9355 -115.417 -71.4639 -182.844c40.4922 -43.0352 97.9297 -69.9551 161.544 -69.9551
c19.5996 0 38.6084 2.56738 56.7227 7.35938zM352.677 152.181c0 -12.5469 10.208 -22.7549 22.7559 -22.7559c12.5488 0 22.7568 10.208 22.7568 22.7559s-10.209 22.7559 -22.7568 22.7559s-22.7559 -10.209 -22.7559 -22.7559zM360.992 -3.40625
c69.5225 37.5039 116.875 111.026 116.875 195.407c0 59.3809 -23.4521 113.386 -61.5781 153.247c-26.5264 -0.400391 -52.6006 -3.94824 -77.8057 -10.4971c23.8965 -38.582 40.5039 -81.6035 48.5283 -126.867c25.8359 -5.3623 45.3105 -28.2998 45.3105 -55.7012
c0 -26.5215 -18.2441 -48.8584 -42.8389 -55.1299c-4.56836 -34.6133 -14.2275 -68.5801 -28.4912 -100.459z" />
    <glyph glyph-name="174-playing-cards" unicode="&#xf1ad;" 
d="M422.957 448c9.21973 0 16.6953 -7.47461 16.6963 -16.6963v-478.608c0 -9.22168 -7.47656 -16.6963 -16.6963 -16.6963h-333.913c-9.2207 0 -16.6963 7.47559 -16.6963 16.6963v478.608c0 9.22168 7.47656 16.6963 16.6963 16.6963h333.913zM406.261 -30.6094v445.219
h-300.521v-445.219h300.521zM345.71 191.301c0 -40.7939 -33.4619 -71.6279 -73.0146 -57.3994v-12.8291h16.1084c9.22168 0 16.6963 -7.47559 16.6963 -16.6963s-7.47559 -16.6963 -16.6963 -16.6963h-65.6074c-9.22168 0 -16.6963 7.47559 -16.6963 16.6963
s7.47559 16.6963 16.6963 16.6963h16.1074v12.8291c-39.5371 -14.2217 -73.0127 16.5908 -73.0127 57.3994c0 38.1338 29.0557 74.7256 81.8154 103.033c4.92969 2.64453 10.8555 2.64453 15.7861 0c52.7617 -28.3076 81.8174 -64.8994 81.8174 -103.033zM270.157 175.87
c13.835 -20.3223 42.1621 -14.7939 42.1621 15.4316c0 23.2344 -20.4004 48.1621 -56.3193 69.1875c-35.9189 -21.0264 -56.3184 -45.9531 -56.3184 -69.1875c0 -30.833 28.6904 -35.2314 42.1611 -15.4316c2.99707 5.0957 8.24023 8.22656 14.1572 8.22656
s11.1621 -3.13086 14.1572 -8.22656z" />
    <glyph glyph-name="138-widening" unicode="&#xf189;" 
d="M136.485 250.369c11.8809 6.86133 26.791 -1.72559 26.791 -15.4658v-85.8057c0 -13.7559 -14.916 -22.3232 -26.791 -15.4668l-74.3086 42.9023c-11.8799 6.85742 -11.9014 24.0605 0 30.9336zM127.555 180.032v23.9355l-20.7266 -11.9678zM449.823 207.467
c5.52539 -3.18945 8.92969 -9.08594 8.92969 -15.4668s-3.4043 -12.2764 -8.92969 -15.4668l-74.3086 -42.9023c-11.8594 -6.84863 -26.791 1.71582 -26.791 15.4658v85.8057c0 13.7188 14.8916 22.3389 26.791 15.4668zM384.445 180.032l20.7266 11.9678l-20.7266 11.9668
v-23.9346zM494.14 364.651c9.86328 0 17.8604 -7.99707 17.8604 -17.8604v-309.581c0 -9.86328 -7.99609 -17.8604 -17.8604 -17.8604h-220.279v-0.0263672c0 -9.86328 -7.99707 -17.8604 -17.8604 -17.8604s-17.8604 7.99609 -17.8604 17.8604v0.0263672h-220.279
c-9.86328 0 -17.8604 7.99609 -17.8604 17.8604v309.581c0 9.86328 7.99707 17.8604 17.8604 17.8604h220.279v0.0263672c0 9.86328 7.99707 17.8604 17.8604 17.8604s17.8604 -7.99609 17.8604 -17.8604v-0.0263672h220.279zM476.279 55.0703v273.859h-202.419v-29.0322
c0 -9.86328 -7.99707 -17.8604 -17.8604 -17.8604s-17.8604 7.99609 -17.8604 17.8604v29.0322h-202.419v-273.859h202.419v29.0322c0 9.86328 7.99707 17.8604 17.8604 17.8604s17.8604 -7.99609 17.8604 -17.8604v-29.0322h202.419zM256 242.251
c9.86426 0 17.8604 -7.99707 17.8604 -17.8604v-64.7803c0 -9.86328 -7.99707 -17.8604 -17.8604 -17.8604s-17.8604 7.99609 -17.8604 17.8604v64.7803c0 9.86328 7.99609 17.8604 17.8604 17.8604z" />
    <glyph glyph-name="025-continuous-line" unicode="&#xf118;" 
d="M356.174 448c9.21973 0 16.6963 -7.47461 16.6963 -16.6963v-478.608c0 -9.22168 -7.47656 -16.6963 -16.6963 -16.6963h-200.348c-9.2207 0 -16.6963 7.47559 -16.6963 16.6963v478.608c0 9.22168 7.47656 16.6963 16.6963 16.6963h200.348zM239.304 -30.6094v445.219
h-66.7822v-445.219h66.7822zM339.478 -30.6094v445.219h-66.7822v-445.219h66.7822zM110.939 206.457c11.1064 -6.41211 11.124 -22.4941 0 -28.917l-83.4785 -48.1963c-11.1094 -6.41602 -25.043 1.62695 -25.043 14.458v96.3936c0 12.8223 13.918 20.8809 25.043 14.458z
M35.8086 172.721l33.3916 19.2793l-33.3916 19.2783v-38.5576zM484.539 254.652c11.1045 6.41211 25.043 -1.6123 25.043 -14.458v-96.3936c0 -12.9297 -14.0049 -20.832 -25.043 -14.458l-83.4785 48.1963c-11.1064 6.41211 -11.124 22.4951 0 28.917zM476.191 172.72
v38.5566l-33.3916 -19.2783z" />
    <glyph glyph-name="037-plugs" unicode="&#xf124;" 
d="M315.026 54.1836c7.49805 -7.49805 7.49805 -19.6562 0 -27.1523c-7.49902 -7.49805 -19.6553 -7.49805 -27.1533 0l-10.4561 10.4551l-55.7705 -55.7695c-2.26367 -2.2627 -5.05859 -3.9248 -8.12793 -4.83301l-88.2432 -26.1172
c-6.77637 -2.00098 -14.0674 -0.124023 -19.0244 4.83496l-29.748 29.748l-43.7256 -43.7256c-7.49902 -7.49805 -19.6553 -7.49805 -27.1533 0c-7.49805 7.49902 -7.49805 19.6562 0 27.1533l43.7236 43.7256l-29.7471 29.7471
c-4.97656 4.97559 -6.83301 12.2764 -4.83496 19.0244l26.1162 88.2451c0.90918 3.07129 2.57129 5.86426 4.83496 8.12793l55.7695 55.7695l-10.4551 10.4561c-7.49805 7.49902 -7.49805 19.6562 0 27.1533c7.49902 7.49707 19.6553 7.49707 27.1523 0
c42.5967 -42.5967 4.94434 -4.9375 47.5439 -47.5391l42.2354 42.2363c7.49902 7.49707 19.6553 7.49707 27.1523 0c7.49805 -7.49902 7.49805 -19.6562 0 -27.1533l-42.2344 -42.2354l47.4463 -47.4473l42.2354 42.2363c7.49902 7.49609 19.6562 7.49609 27.1533 0
c7.49805 -7.49902 7.49805 -19.6562 0 -27.1533l-42.2354 -42.2363c42.6875 -42.6875 4.85352 -4.8584 47.5459 -47.5508zM197.943 12.3203l52.3203 52.3203l-121.624 121.624l-52.3193 -52.3203l-21.4912 -72.6162l70.499 -70.499zM506.375 442.376
c7.5 -7.49805 7.5 -19.6553 0 -27.1514l-43.7256 -43.7256l29.748 -29.748c4.97559 -4.97559 6.83203 -12.2764 4.83496 -19.0244l-26.1162 -88.2441c-0.90918 -3.07129 -2.57129 -5.86426 -4.83496 -8.12793l-55.7705 -55.7695l10.4561 -10.4561
c7.49805 -7.49902 7.49805 -19.6562 0 -27.1533c-7.49902 -7.49805 -19.6543 -7.49805 -27.1523 0l-196.842 196.842c-7.49805 7.49902 -7.49805 19.6562 0 27.1523c7.49902 7.49707 19.6562 7.49707 27.1533 0l10.4551 -10.4561l55.7705 55.7695
c2.26367 2.2627 5.05859 3.92578 8.12793 4.83496l88.2451 26.1152c6.75098 1.99219 14.0498 0.142578 19.0244 -4.83496l29.748 -29.748l43.7246 43.7256c7.49902 7.49707 19.6562 7.49707 27.1533 0zM435.68 250.056l21.4902 72.6172l-70.499 70.499l-72.6162 -21.4912
l-52.3203 -52.3193l121.626 -121.626zM180.262 62.4248c7.49805 -7.49805 7.49805 -19.6562 0 -27.1533c-7.49902 -7.49805 -19.6553 -7.49805 -27.1533 0l-53.8369 53.8369c-7.49805 7.49902 -7.49805 19.6562 0 27.1533c7.49902 7.49707 19.6562 7.49707 27.1533 0z
M412.729 294.892c7.49805 -7.49805 7.49805 -19.6562 0 -27.1533c-7.49902 -7.49805 -19.6553 -7.49805 -27.1533 0l-53.8369 53.8369c-7.49805 7.49902 -7.49805 19.6562 0 27.1533c7.49707 7.49707 19.6553 7.49707 27.1533 0z" />
    <glyph glyph-name="247-star-1" unicode="&#xf1f6;" 
d="M389.5 -50.4023c-6.39844 0 -12.8203 1.5625 -18.7422 4.72656l-110.184 58.8828c-2.86328 1.52734 -6.28125 1.52734 -9.14453 0l-110.188 -58.8828c-13.457 -7.19141 -29.5156 -6.11719 -41.9102 2.80078c-12.625 9.07812 -18.8477 24.3008 -16.2422 39.7266
l21.043 124.711c0.582031 3.44531 -0.527344 6.94141 -2.96094 9.35547l-89.1445 88.3164c-10.9883 10.8906 -14.8047 26.8242 -9.96094 41.5898c4.78906 14.5977 17.125 25.0469 32.1914 27.2734l123.191 18.1953c3.23828 0.476562 6.05469 2.57812 7.53125 5.62109
l55.0977 113.465c6.77344 13.9531 20.5391 22.6211 35.9219 22.6211s29.1484 -8.66797 35.9258 -22.6211l55.0938 -113.465c1.47656 -3.03906 4.29297 -5.14453 7.53125 -5.62109l123.191 -18.1953c15.0664 -2.22656 27.4023 -12.6758 32.1914 -27.2734
c4.84375 -14.7617 1.02734 -30.6992 -9.96094 -41.5859l-89.1445 -88.3203c-2.43359 -2.41406 -3.54297 -5.91016 -2.96094 -9.35156l21.043 -124.711c2.60547 -15.4258 -3.61719 -30.6484 -16.2422 -39.7305c-6.9375 -4.99219 -15.0312 -7.52734 -23.168 -7.52734z
M256 44.3594c6.42578 0 12.8516 -1.5625 18.7109 -4.69531l110.184 -58.8789c4.81641 -2.57031 8.77734 -0.375 10.2578 0.691406c1.23828 0.894531 5.20703 4.28125 4.17969 10.3828l-21.043 124.711c-2.20703 13.0547 2.06641 26.3828 11.4258 35.6562l89.1445 88.3203
c4.3125 4.27344 3.05859 9.44141 2.57031 10.9258c-0.597656 1.81641 -2.57812 6.13672 -8.06641 6.94922l-123.195 18.1914c-13.0586 1.92969 -24.3203 10.2266 -30.1367 22.1953l-55.0938 113.469c-2.50781 5.16406 -7.08594 5.72266 -8.9375 5.72266
s-6.42969 -0.558594 -8.9375 -5.72266l-55.0938 -113.469c-5.8125 -11.9688 -17.0781 -20.2656 -30.1367 -22.1953l-123.191 -18.1914c-5.49219 -0.8125 -7.47266 -5.13281 -8.07031 -6.94922c-0.484375 -1.48438 -1.73828 -6.65234 2.57031 -10.9258l89.1445 -88.3203
c9.35938 -9.26953 13.6328 -22.6016 11.4297 -35.6562l-21.043 -124.707c-1.03125 -6.10547 2.9375 -9.49219 4.17578 -10.3867c1.48047 -1.0625 5.44922 -3.26172 10.2578 -0.691406l110.184 58.8789c5.85938 3.12891 12.2852 4.69531 18.7109 4.69531zM256 44.3594z" />
    <glyph glyph-name="081-framework" unicode="&#xf150;" 
d="M495.304 386.783c9.22168 0 16.6963 -7.47656 16.6973 -16.6963v-356.174c0 -9.2207 -7.47559 -16.6963 -16.6963 -16.6963h-478.608c-9.22168 0 -16.6963 7.47656 -16.6963 16.6963v356.174c0 9.21973 7.47461 16.6963 16.6963 16.6963h478.607zM478.609 30.6094
h-0.000976562v222.967h-445.218v-222.967h445.219zM478.609 286.967h-0.000976562v66.4238h-445.218v-66.4238h445.219zM443.568 344.753c12.2744 0 22.2607 -9.98633 22.2607 -22.2607c0 -12.2754 -9.98633 -22.2607 -22.2607 -22.2607
c-12.2754 0 -22.2617 9.98535 -22.2617 22.2607c0 12.2744 9.98633 22.2607 22.2617 22.2607zM382.926 344.753c12.2754 0 22.2607 -9.98633 22.2607 -22.2607c0 -12.2754 -9.98535 -22.2607 -22.2607 -22.2607c-12.2744 0 -22.2607 9.98535 -22.2607 22.2607
c0 12.2744 9.98633 22.2607 22.2607 22.2607zM322.284 344.753c12.2744 0 22.2607 -9.98633 22.2607 -22.2607c0 -12.2754 -9.98633 -22.2607 -22.2607 -22.2607c-12.2754 0 -22.2607 9.98535 -22.2607 22.2607c0 12.2744 9.98535 22.2607 22.2607 22.2607z" />
    <glyph glyph-name="212-like-1" unicode="&#xf1d3;" 
d="M344.023 -64c-0.0195312 0 -41.1055 0.0507812 -54.3516 0.0507812c-68.3477 0 -117.324 5.9375 -154.125 18.6875c-7.83984 2.75 -14.6914 5.80469 -20.7344 8.49609c-10.6992 4.76562 -19.1445 8.52734 -27.9062 8.52734h-35.6992
c-10.8086 0 -26.4609 1.15625 -37.5078 11.1562c-11.832 10.707 -13.1992 26.2344 -13.1992 36.9805l0.0078125 163.211c0 14.9844 4.60156 27.6367 13.3125 36.5859c6.25781 6.4375 17.8281 14.1094 37.3867 14.1094c0.957031 0 2.01562 -0.0117188 3.16406 -0.0234375
c11.1562 -0.125 29.5117 -0.320312 41.3867 9.98828c0.722656 1.38672 1.42578 2.6875 2.05859 3.85547c0.425781 0.847656 0.828125 1.54297 1.12891 2.07031c0.105469 0.179688 0.214844 0.359375 0.316406 0.558594c0.820312 1.94922 1.79297 3.67578 2.94141 5.20703
c6.32812 10.5898 13.4492 20.4648 19.6406 27.2188c13.6758 14.9609 26.3516 22.6992 37.5352 29.5312c13.1289 8.01953 22.6172 13.8125 30.875 29.9375l0.578125 1.12109c12.3633 24.1055 17.4805 34.082 20.5742 46.0508
c1.04688 4.05859 1.50781 8.32422 1.36719 12.6758c-1.12109 16.8906 7.22656 42.8164 34.9688 45.9102l0.828125 0.09375h0.832031c16.8867 0 31.0234 -4 42.0234 -11.8828c16.3711 -11.7344 24.6719 -30.8008 24.6719 -56.6641
c0 -46.1328 -11.2812 -83.043 -21.0156 -106.301l115.855 -14.5469c27.7539 -1.60156 49.1914 -26.7383 47.918 -56.375c-0.675781 -15.7148 -7.19141 -29.8828 -17.1094 -39.7773c9.375 -9.20312 14.3594 -21.6484 13.8125 -35.9688
c-0.179688 -14.3516 -4.58203 -25.8203 -13.0859 -34.0898c-3.28516 -3.19531 -6.96094 -5.67188 -10.8477 -7.58594c6.57812 -8.69531 10.1289 -19.2812 10.1289 -30.4883c0 -15.2852 -5.78516 -29.2344 -16.293 -39.2734
c-8.5625 -8.17969 -19.7617 -13.3047 -31.6328 -14.6445c1.84766 -5.11328 2.70312 -10.6758 2.47266 -16.5312c-0.0234375 -2.33203 -0.246094 -6.63672 -0.582031 -8.67969c-1.53125 -9.23438 -5.25 -16.5508 -11.375 -22.375
c-11.5586 -11 -25.5039 -16.8164 -40.3203 -16.8164zM51.207 203.805c-14.5117 0 -20.6992 -6.1875 -20.6992 -20.6992l-0.0078125 -163.211c0 -5.34766 0.578125 -12.2461 3.32812 -14.7383c1.40234 -1.26562 5.52734 -3.39453 17.3789 -3.39453h35.6992
c15.1406 0 27.2695 -5.40625 40.1133 -11.125c5.78906 -2.58203 11.7734 -5.24609 18.4023 -7.57422c33.0352 -11.4414 80.2344 -17.0156 144.25 -17.0156c13.2539 0 54.3711 -0.0507812 54.3711 -0.0507812c7.05078 0 13.6602 2.87891 19.6289 8.55469
c0.757812 0.722656 1.78516 1.69922 2.41406 5.32812c0.0859375 0.890625 0.199219 3.15234 0.21875 4.07812l-0.015625 0.324219l0.03125 0.695312c0.261719 5.83984 -2.61719 10.1328 -8.55469 12.7695c-7.01562 3.11328 -11.2344 10.3359 -10.5 17.9805
c0.925781 9.66016 9.55859 16.8555 19.2305 16.043l20.168 -1.70703c6.79688 -0.242188 13.375 2.18359 18.0742 6.67188c4.58984 4.38672 7.01953 10.4688 7.01953 17.5859c0 9.63281 -7.02734 20.543 -22.4531 21.7422
c-4.38672 0.335938 -8.50781 2.48047 -11.3008 5.88281c-2.79297 3.39062 -4.09375 7.83984 -3.57812 12.2031c0.988281 8.32422 8.07812 14.4961 16.4375 14.3125c9.21094 -0.171875 24.625 -0.46875 30.6953 5.4375c0.972656 0.941406 3.92188 3.8125 4.00391 13.1016
l0.0117188 0.507812c0.566406 13.2461 -9.98047 18.4141 -18.9297 20.4258h-0.0078125c-7.42969 1.67188 -12.5391 8.65234 -11.8906 16.2344c0.652344 7.58203 6.875 13.5859 14.4805 13.9648c10.2539 0.519531 19.0781 11.9102 19.6602 25.3867
c0.574219 13.3555 -8.36719 24.6367 -19.9297 25.1445l-1.21094 0.105469l-117.98 14.8125c-9.04688 1.13672 -16.8398 6.32031 -21.3789 14.2227c-4.54297 7.90234 -5.09766 17.2461 -1.52344 25.6328c7.18359 16.8555 19.2344 51.7383 19.2344 96.0117
c0 33.543 -18.9023 38.3789 -35.7578 38.543c-3.30469 -0.523438 -4.98438 -2.00391 -6.26172 -5.40625c-1.28906 -3.43359 -1.42578 -7.40625 -1.36328 -8.76172l0.03125 -0.359375l-0.0078125 -0.128906c0.273438 -7.33594 -0.496094 -14.5781 -2.29297 -21.5234
c-3.92578 -15.1914 -9.87891 -26.8008 -22.9219 -52.2344l-0.574219 -1.11719c-12.1055 -23.6367 -27.2734 -32.8984 -41.9375 -41.8555c-9.94141 -6.07422 -20.2266 -12.3516 -31.0391 -24.1836c-4.96484 -5.41406 -11.1289 -14.0664 -16.4961 -23.1562l-0.941406 -1.5
c-0.597656 -1.30859 -1.17188 -2.30469 -1.57031 -3c-0.109375 -0.195312 -0.230469 -0.386719 -0.335938 -0.597656l-0.320312 -0.628906c-0.910156 -1.66797 -1.97266 -3.64453 -2.98047 -5.65625l-1.08984 -2.16406l-1.71484 -1.71484
c-20.6953 -20.6953 -50.2695 -20.375 -64.4805 -20.2227c-1.02734 0.015625 -1.97656 0.0234375 -2.83594 0.0234375zM366.133 -19.8477c-0.0078125 -0.0429688 -0.015625 -0.0898438 -0.0234375 -0.136719c0.00390625 0.0234375 0.0078125 0.0507812 0.015625 0.0742188z
M366.145 -19.7891l-0.0117188 -0.0585938zM366.32 -16.3047c0 -0.0390625 0.00390625 -0.0742188 0.00390625 -0.105469zM391.617 105.973h0.0234375h-0.0234375zM410.762 148.176h-0.0273438h0.0273438zM410.762 148.176z" />
    <glyph glyph-name="034-importance" unicode="&#xf121;" 
d="M500.417 -39.5557c5.42383 -11.3184 -2.84375 -24.4443 -15.3906 -24.4443h-458.054c-12.5498 0 -20.8125 13.1289 -15.3896 24.4443l229.027 477.882c6.18262 12.9043 24.6035 12.8926 30.7803 0zM255.999 391.46l-49.2363 -102.736h98.4736zM190.404 254.588
l-59.9834 -125.16h251.157l-59.9834 125.16h-131.19zM54.0781 -29.8662h403.842l-59.9834 125.16h-283.876z" />
    <glyph glyph-name="207-playstore" unicode="&#xf1ce;" 
d="M432.319 232.879c14.7812 -8.53125 23.6055 -23.8125 23.6055 -40.8789s-8.82422 -32.3477 -23.6016 -40.8789l-361.519 -208.722c-7.38672 -4.26562 -15.4961 -6.39844 -23.6016 -6.39844s-16.2109 2.13281 -23.6016 6.39844
c-14.7773 8.53125 -23.6016 23.8125 -23.6016 40.8789v417.444c0 16.6758 8.44531 31.6328 22.6211 40.2695c0.207031 0.136719 0.417969 0.265625 0.628906 0.390625c0.121094 0.0703125 0.230469 0.148438 0.351562 0.21875c14.7812 8.53125 32.4258 8.53125 47.2031 0z
M30.3789 -20.2725l204.957 213.78l-204.324 213.121c-0.605469 -1.70312 -0.984375 -3.66016 -0.984375 -5.90625v-417.444c0 -1.27734 0.132812 -2.45312 0.351562 -3.55078zM74.2031 404.969l181.934 -189.766l52.2852 54.5391zM67.7227 -24.71l242.562 140.042
l-54.1523 56.4844zM417.308 177.125c7.75 4.47656 8.58984 11.8945 8.58984 14.875s-0.839844 10.3984 -8.58984 14.875l-82.1133 47.4062l-58.2607 -60.7734l60.124 -62.7148zM417.308 177.125z" />
    <glyph glyph-name="183-happy" unicode="&#xf1b6;" 
d="M256 425.906c138.983 0 256 -95.3955 256 -218.074c0 -140.916 -152.298 -241.316 -308.761 -213.438l-127.252 -35.6221c-16.1699 -4.52344 -28.3477 14.5996 -17.7119 27.3604l41 49.1992c-62.5332 41.1699 -99.2754 104.39 -99.2754 172.501
c0 122.657 116.991 218.074 256 218.074zM205.682 28.6553c138.074 -26.5977 272.186 60.2119 272.188 179.177c0 101.426 -99.5293 183.941 -221.867 183.941s-221.867 -82.5156 -221.867 -183.941c0 -61.6523 37.0898 -118.933 99.2139 -153.227
c4.45703 -2.46094 7.58398 -6.7832 8.52539 -11.7871c0.939453 -5.00488 -0.40332 -10.168 -3.66309 -14.0801l-18.5879 -22.3057l78.2285 21.8994c2.55078 0.712891 5.23047 0.824219 7.83008 0.323242zM330.272 178.82c9.42578 0 17.0664 -7.64258 17.0664 -17.0674
c0 -50.3643 -40.9746 -91.3389 -91.3389 -91.3389s-91.3389 40.9736 -91.3389 91.3389c0 9.42578 7.64062 17.0674 17.0664 17.0674c9.42676 0 17.0674 -7.64258 17.0674 -17.0674c0 -31.542 25.6621 -57.2051 57.2051 -57.2051c31.542 0 57.2051 25.6611 57.2051 57.2051
c0 9.42578 7.6416 17.0674 17.0674 17.0674zM380.142 274.873c9.42676 0 17.0674 -7.64062 17.0674 -17.0674c0 -9.42578 -7.6416 -17.0664 -17.0674 -17.0664h-4.95605c-7.28516 -23.3916 -29.1416 -40.4199 -54.8984 -40.4199s-47.6133 17.0293 -54.9004 40.4199h-18.7725
c-7.28613 -23.3916 -29.1436 -40.4199 -54.9004 -40.4199s-47.6133 17.0293 -54.8984 40.4199h-4.96484c-9.42578 0 -17.0664 7.64062 -17.0664 17.0664c0 9.42676 7.6416 17.0674 17.0664 17.0674h4.96484c7.28516 23.3906 29.1416 40.4199 54.8984 40.4199
s47.6133 -17.0303 54.9004 -40.4199h18.7725c7.28613 23.3906 29.1436 40.4199 54.9004 40.4199s47.6133 -17.0303 54.8984 -40.4199h4.95605zM191.713 234.454c12.877 0 23.3535 10.4756 23.3535 23.3525c0 12.876 -10.4775 23.3535 -23.3535 23.3535
s-23.3516 -10.4775 -23.3516 -23.3535s10.4756 -23.3525 23.3516 -23.3525zM343.635 257.741c0 0.0214844 -0.00292969 0.0429688 -0.00292969 0.0654297c0 0.0234375 0.00292969 0.0429688 0.00292969 0.0664062c-0.0351562 12.8467 -10.4932 23.2871 -23.3477 23.2871
c-12.876 0 -23.3535 -10.4775 -23.3535 -23.3535s10.4775 -23.3525 23.3535 -23.3525c12.8535 0 23.3125 10.4395 23.3477 23.2871z" />
    <glyph glyph-name="047-magnifying-glass-1" unicode="&#xf12e;" 
d="M504.571 68.541c9.20312 -7.31934 9.96875 -21.0312 1.66602 -29.334l-97.4326 -97.4326c-8.29883 -8.29688 -22.0039 -7.55273 -29.333 1.66602l-153.264 192.66c-6.23438 7.83496 -5.5957 19.0996 1.48535 26.1807l15.0947 15.0957l-11.2285 11.2285
c-56.5811 -42.9443 -137.722 -38.5459 -189.237 12.9697c-58.2881 58.2852 -56.2441 153.504 5.36816 209.218c59.9521 54.3828 155.124 49.1719 208.484 -15.8691c43.7432 -53.582 41.9893 -127.405 3.23047 -178.473l11.2295 -11.2285l15.0947 15.0947
c7.07812 7.08203 18.3467 7.7207 26.1807 1.48633zM246.179 329.025c-25.665 103.622 -177.216 107.137 -203.679 -0.0498047c61.7715 38.4473 141.318 38.8174 203.679 0.0498047zM155.023 292.987c5.86914 5.87109 5.86914 15.4199 0 21.29
c-5.8916 5.89062 -15.4619 5.82715 -21.29 0c-5.86816 -5.87109 -5.86816 -15.4199 0 -21.29c5.87012 -5.87012 15.4209 -5.86816 21.29 0zM42.1855 279.688c24.8467 -106.945 179.248 -107.984 204.34 0.0429688c-14.4316 12.8945 -30.7334 22.5879 -47.9795 29.0654
c3.03125 -32.083 -22.0967 -59.5742 -54.1641 -59.5742c-32.0938 0 -57.1953 27.5166 -54.165 59.5742c-17.2676 -6.48535 -33.5859 -16.1914 -48.0312 -29.1084zM396.558 -14.7783l66.2334 66.2344l-161.642 128.588l-33.1797 -33.1807z" />
    <glyph glyph-name="066-passion" unicode="&#xf141;" 
d="M375.467 425.836c80.3359 0 136.533 -74.2275 136.533 -161.58c0 -63.8779 -32.21 -188.322 -247.931 -304.063c-5.04004 -2.70508 -11.1016 -2.70312 -16.1387 0c-215.72 115.74 -247.931 240.186 -247.931 304.063c0 85.3711 54.5811 161.58 136.533 161.58
c60.0605 0 99.7695 -32.7969 119.467 -54.4932c19.6982 21.6982 59.4062 54.4932 119.467 54.4932zM256 -5.34766c103.622 56.9727 221.867 151.896 221.867 269.604c0 64.8555 -38.8496 127.446 -102.4 127.446c-69.0059 0 -104.592 -56.3594 -104.943 -56.9277
c-6.65234 -10.7783 -22.3389 -10.7891 -29.0176 -0.046875c-17.5205 27.6299 -57.1162 56.9736 -104.973 56.9736c-63.0811 0 -102.4 -61.9688 -102.4 -127.446c0 -117.706 118.248 -212.632 221.867 -269.604z" />
    <glyph glyph-name="051-maps-and-flags-2" unicode="&#xf132;" 
d="M256 448c102.244 0 185.425 -83.1816 185.427 -185.426c0 -126.889 -165.938 -313.167 -173.004 -321.035c-6.62402 -7.37793 -18.21 -7.39062 -24.8457 0c-7.06543 7.86816 -173.004 194.146 -173.004 321.035c0 102.244 83.1816 185.426 185.427 185.426zM256 -21.7285
c55.8613 66.3584 152.034 197.214 152.035 284.302c0 83.833 -68.2021 152.035 -152.035 152.035s-152.035 -68.2021 -152.035 -152.036c0 -87.084 96.1885 -217.963 152.035 -284.301zM256 355.866c51.4414 0 93.291 -41.8516 93.291 -93.293
c0 -51.4424 -41.8496 -93.293 -93.291 -93.293s-93.292 41.8506 -93.292 93.293c0 51.4414 41.8496 93.293 93.292 93.293zM256 202.672c33.0293 0 59.9004 26.8711 59.9004 59.9014c0 33.0293 -26.8711 59.9004 -59.9004 59.9004s-59.9004 -26.8711 -59.9004 -59.9004
c0 -33.0303 26.8701 -59.9014 59.9004 -59.9014z" />
    <glyph glyph-name="235-hashtag-1" unicode="&#xf1ea;" 
d="M497 448c8.28418 0 15 -6.71582 15 -15v-385.6c0 -8.28418 -6.71582 -15 -15 -15h-282.987l-92.0059 -92.0068c-2.86914 -2.86914 -6.70605 -4.39355 -10.6094 -4.39355c-1.93262 0 -3.88184 0.373047 -5.7373 1.1416
c-5.60547 2.32129 -9.25977 7.79102 -9.25977 13.8584v81.3994h-81.4004c-8.28418 0 -15 6.71582 -15 15v385.601c0 8.28418 6.71582 15 15 15h482zM482 62.3994v355.601h-452v-355.6h81.4014c8.2832 0 15 -6.7168 15 -15v-60.1865l70.793 70.792
c2.81152 2.8125 6.62793 4.39355 10.6055 4.39355h274.2zM360.434 303.399c8.28418 0 15 -6.7168 15 -15c0 -8.28418 -6.71582 -15 -15 -15h-38.415l-5.53223 -66.4004h27.8818c8.28418 0 15 -6.71582 15 -15s-6.71582 -15 -15 -15h-30.3818l-2.87012 -34.4463
c-0.65332 -7.83203 -7.21094 -13.7549 -14.9326 -13.7549c-0.416992 0 -0.838867 0.0185547 -1.2627 0.0527344c-8.25488 0.688477 -14.3896 7.93945 -13.7021 16.1943l2.66309 31.9551h-66.2959l-2.87012 -34.4473c-0.652344 -7.83203 -7.21191 -13.7549 -14.9316 -13.7549
c-0.416992 0 -0.837891 0.0185547 -1.26172 0.0527344c-8.25684 0.688477 -14.3916 7.93945 -13.7031 16.1943l2.66309 31.9551h-35.915c-8.28418 0 -15 6.71582 -15 14.999c0 8.28418 6.71582 15 15 15h38.415l5.53223 66.4004h-27.8809c-8.28418 0 -15 6.71582 -15 15
c0 8.2832 6.71582 15 15 15h30.3809l2.87109 34.4443c0.688477 8.25586 7.93164 14.3906 16.1943 13.7031c8.25586 -0.6875 14.3906 -7.93848 13.7031 -16.1943l-2.66309 -31.9531h66.2959l2.87012 34.4443c0.686523 8.25488 7.92285 14.3926 16.1943 13.7031
c8.25488 -0.6875 14.3896 -7.93848 13.7012 -16.1943l-2.66309 -31.9531h35.915zM286.382 207l5.5332 66.4004h-66.2959l-5.5332 -66.4004h66.2959z" />
    <glyph glyph-name="029-coin" unicode="&#xf11c;" 
d="M382.259 389.078c69.5977 0 129.741 -30.3994 129.741 -75.0586v-177.075c0 -43.8203 -58.0801 -74.2012 -126.932 -75.0117c-7.62207 -45.1211 -73.1924 -67.0107 -129.068 -67.0107c-51.2266 0 -121.062 19.6162 -129.068 67.0107
c-68.5986 0.806641 -126.932 31.0498 -126.932 75.0107v177.075c0 44.5322 59.915 75.0596 129.741 75.0596c49.2891 0 110.397 -17.1426 126.259 -57.0225c14.623 36.7715 70.6855 57.0225 126.259 57.0225zM256 289.426c-59.1289 0 -96.9531 -24.1846 -97.0576 -42.2988
c0 -0.0253906 -0.00195312 -0.0498047 -0.00195312 -0.0751953v-0.0566406c0.0771484 -19.5459 40.8711 -42.335 97.0605 -42.333c48.0693 0.00292969 96.9629 18.9014 97.0576 42.333v0.0566406c0 0.0253906 -0.00195312 0.0498047 -0.00195312 0.0751953
c-0.103516 18.1934 -38.1484 42.2988 -97.0566 42.2988zM126.257 94.6035v55.8066c-31.3174 0.463867 -67.5664 7.85059 -93.5762 24.4814v-37.9482c0 -17.3467 35.5039 -41.4062 93.5762 -42.3398zM126.257 183.185v55.8115
c-31.4268 0.467773 -67.1934 7.50684 -93.5762 24.3623c0 -37.2832 -0.0205078 -37.9814 0.0351562 -38.8955c1.24023 -22.168 47.6113 -40.4219 93.541 -41.2783zM132.914 271.672c16.7949 29.6592 58.8682 43.9775 92.5449 48.4473
c-7.12891 16.7646 -42.249 36.2783 -95.7178 36.2783c-60.1348 0 -97.0605 -24.6816 -97.0605 -42.3779c0 -20.6875 44.3838 -43.3545 100.233 -42.3477zM256 27.6025c60.1357 0 97.0615 24.6807 97.0605 42.373c0 2.49902 -0.00195312 10.6445 -0.00195312 37.8711
c-50.9121 -32.5449 -143.293 -32.4883 -194.118 0.000976562c0 -29.1406 -0.00195312 -37.2549 -0.00195312 -37.8721c0 -17.6924 36.9258 -42.373 97.0615 -42.373zM352.954 156.838c0.145508 1.15039 0.105469 -1.42969 0.105469 39.5469
c-50.9297 -32.5576 -143.197 -32.5234 -194.118 0.000976562c0 -41.0449 -0.0400391 -38.3994 0.105469 -39.5488v-0.00195312c2.375 -18.7227 41.4102 -40.6934 96.9531 -40.6934c55.8984 0 94.5977 22.1279 96.9541 40.6934v0.00292969zM379.086 271.673
c58.5693 -0.829102 100.233 22.6455 100.234 42.3467c0 17.6953 -36.9258 42.3779 -97.0605 42.3779c-53.4688 0 -88.5879 -19.5137 -95.7168 -36.2773c33.834 -4.49023 75.7988 -18.8779 92.543 -48.4473zM479.319 136.944v37.71
c-26.2314 -16.0967 -62.3975 -23.9951 -93.5762 -24.291v-55.7568c58.0713 0.930664 93.5762 24.9912 93.5762 42.3379zM479.187 223.636c0.192383 1.48828 0.132812 -2.69238 0.132812 39.7197c-26.3105 -16.8271 -61.9512 -23.8721 -93.5762 -24.3613v-55.8398
c30.5947 0.476562 89.8652 12.6689 93.4434 40.4814z" />
    <glyph glyph-name="030-right-arrow-1" unicode="&#xf11d;" 
d="M256 448c141.503 0 256 -114.509 256 -256c0 -141.503 -114.509 -256 -256 -256c-141.503 0 -256 114.509 -256 256c0 141.503 114.509 256 256 256zM256 -29.8672c122.337 0 221.867 99.5303 221.867 221.867s-99.5303 221.867 -221.867 221.867
s-221.867 -99.5293 -221.867 -221.867s99.5303 -221.867 221.867 -221.867zM386.939 205.456c8.74219 -6.81934 8.76172 -20.0781 0 -26.9141l-122.13 -95.2773c-11.1094 -8.66504 -27.5645 -0.829102 -27.5645 13.4561v47.9189h-101.688
c-9.42578 0 -17.0664 7.64258 -17.0664 17.0674v60.584c0 9.42578 7.6416 17.0674 17.0664 17.0674h101.688v47.9189c0 14.1855 16.377 22.1855 27.5645 13.457zM271.379 131.683l77.3174 60.3174l-77.3164 60.3184v-30.0254c0 -9.42578 -7.6416 -17.0674 -17.0664 -17.0674
h-101.688v-26.4502h101.687c9.42676 0 17.0674 -7.64258 17.0674 -17.0674v-30.0254z" />
    <glyph glyph-name="091-loudspeaker" unicode="&#xf15a;" 
d="M288.09 397.116c11.5801 8.59277 28.0723 0.320312 28.0723 -14.1201v-381.996c0 -14.5293 -16.5586 -22.6689 -28.0723 -14.1201l-149.647 111.125h-120.855c-9.71191 0 -17.5869 7.87402 -17.5869 17.5869v152.812c0 9.71289 7.875 17.5869 17.5869 17.5869h120.856z
M126.671 133.178v117.638h-91.4961v-117.638h91.4961zM280.987 35.9648v312.063l-119.142 -88.4727v-135.119l119.142 -88.4717v0zM474.372 351.951c6.86914 -6.86816 6.86914 -18.0049 0 -24.8721l-78.4043 -78.4033c-6.86914 -6.87012 -18.0059 -6.86816 -24.8721 0
c-6.86914 6.86816 -6.86914 18.0049 0 24.8721l78.4043 78.4033c6.86914 6.86719 18.0059 6.87012 24.8721 0zM494.413 209.584c9.71191 0 17.5869 -7.87402 17.5869 -17.5879c0 -9.71191 -7.87402 -17.5869 -17.5869 -17.5869h-110.88
c-9.71289 0 -17.5879 7.87402 -17.5879 17.5869s7.875 17.5879 17.5879 17.5879h110.88zM474.372 56.9141c6.86914 -6.86816 6.86914 -18.0049 0 -24.8721c-6.86816 -6.86914 -18.0029 -6.86914 -24.8721 0l-78.4043 78.4043c-6.86914 6.86816 -6.86816 18.0049 0 24.8721
c6.86816 6.86621 18.0049 6.86621 24.8721 0z" />
    <glyph glyph-name="144-location" unicode="&#xf18f;" 
d="M256 448c141.503 0 256 -114.51 256 -256c0 -141.503 -114.51 -256 -256 -256c-141.503 0 -256 114.51 -256 256c0 141.503 114.51 256 256 256zM256 -29.8672c122.337 0 221.867 99.5303 221.867 221.867s-99.5303 221.867 -221.867 221.867
s-221.867 -99.5293 -221.867 -221.867s99.5303 -221.867 221.867 -221.867zM345.962 295.701c14.2451 7.05566 29.585 -7.59766 23.2002 -22.1514l-97.5332 -222.322c-5.95508 -13.5703 -25.291 -13.5996 -31.2578 0l-97.5332 222.322
c-6.38672 14.5625 8.96289 29.2021 23.2021 22.1514l89.9609 -44.5391zM256.001 100.566l63.0527 143.724l-55.4795 -27.4678c-4.77246 -2.3623 -10.374 -2.3623 -15.1455 0l-55.4795 27.4678z" />
    <glyph glyph-name="186-magic" unicode="&#xf1b9;" 
d="M506.376 19.5186c7.49902 -7.49707 7.49902 -19.6553 0 -27.1533l-50.7402 -50.7402c-7.49902 -7.49805 -19.6543 -7.49805 -27.1523 0l-270.614 270.614c-7.49805 7.49902 -7.49805 19.6553 0 27.1523l50.7402 50.7412c7.49902 7.49707 19.6553 7.49707 27.1523 0z
M225.558 198.86l23.5859 23.5869l-26.958 26.958l-23.585 -23.5879zM442.06 -17.6445l23.5908 23.5869l-189.353 189.352l-23.5879 -23.5869zM163.969 311.181c7.49707 -7.49707 7.49707 -19.6533 -0.000976562 -27.1504c-7.5 -7.5 -19.6562 -7.49707 -27.1523 0
l-57.6328 57.6328c-7.49805 7.49902 -7.49902 19.6562 0 27.1533s19.6533 7.5 27.1533 0zM100.705 196.851c10.6035 0 19.2002 -8.5957 19.2002 -19.1992c0 -10.6045 -8.59668 -19.2002 -19.2002 -19.2002h-81.5049c-10.6045 0 -19.2002 8.5957 -19.2002 19.2002
c0 10.6035 8.5957 19.1992 19.2002 19.1992h81.5049zM270.346 447.998c10.6045 0 19.2002 -8.59668 19.2002 -19.2002v-81.5049c0 -10.6035 -8.5957 -19.2002 -19.2002 -19.2002c-10.6035 0 -19.1992 8.59668 -19.1992 19.2002v81.5049
c0 10.6045 8.5957 19.2002 19.1992 19.2002z" />
    <glyph glyph-name="223-file-1" unicode="&#xf1de;" 
d="M398.913 324.238c3.32031 -3.31641 5.15234 -7.73438 5.15234 -12.4336v-357.604c0 -10.0352 -8.16406 -18.1992 -18.2031 -18.1992h-367.659c-10.0391 0 -18.2031 8.16406 -18.2031 18.1992v475.597c0 10.0391 8.16406 18.2031 18.1992 18.2031h249.667
c1.23828 0 2.44922 -0.132812 3.62891 -0.378906c0.0585938 -0.0117188 0.117188 -0.03125 0.175781 -0.046875c3.24609 -0.710938 6.23438 -2.32422 8.64062 -4.73047zM283.495 397.188v-70.3711h70.3711zM30.0312 -33.9717h344.003v330.761h-105.551
c-8.29297 0 -15.0156 6.72266 -15.0156 15.0156v106.164h-223.437v-451.94zM30.0312 -33.9717zM327.241 212.238c8.28906 0 15.0117 -6.72266 15.0117 -15.0146c0 -8.29297 -6.72266 -15.0117 -15.0117 -15.0117h-191.8c-8.29297 0 -15.0156 6.71875 -15.0156 15.0117
c0 8.29199 6.72266 15.0146 15.0156 15.0146h191.8zM327.241 212.238zM327.241 143.372c8.28906 0 15.0117 -6.72266 15.0117 -15.0117c0 -8.29297 -6.72266 -15.0156 -15.0117 -15.0156h-191.8c-8.29297 0 -15.0156 6.72266 -15.0156 15.0156
c0 8.28906 6.72266 15.0117 15.0156 15.0117h191.8zM327.241 143.372zM327.241 74.5088c8.28906 0 15.0117 -6.72266 15.0117 -15.0156s-6.72266 -15.0156 -15.0117 -15.0156h-191.8c-8.29297 0 -15.0156 6.72266 -15.0156 15.0156s6.72266 15.0156 15.0156 15.0156h191.8z
M327.241 74.5088zM91.5469 200.156c0.0976562 -0.480469 0.167969 -0.96875 0.21875 -1.46094c0.0507812 -0.480469 0.0703125 -0.979492 0.0703125 -1.47168c0 -0.488281 -0.0195312 -0.988281 -0.0703125 -1.48047
c-0.046875 -0.480469 -0.117188 -0.96875 -0.21875 -1.44922s-0.21875 -0.960938 -0.359375 -1.43359c-0.140625 -0.460938 -0.3125 -0.929688 -0.5 -1.37891c-0.183594 -0.453125 -0.402344 -0.902344 -0.621094 -1.33203
c-0.230469 -0.429688 -0.492188 -0.851562 -0.761719 -1.26172s-0.5625 -0.800781 -0.871094 -1.17969c-0.308594 -0.382812 -0.652344 -0.753906 -0.992188 -1.10156c-0.347656 -0.339844 -0.71875 -0.683594 -1.10156 -0.992188
c-0.378906 -0.308594 -0.769531 -0.601562 -1.17969 -0.871094s-0.832031 -0.53125 -1.26172 -0.75c-0.429688 -0.230469 -0.882812 -0.441406 -1.33203 -0.632812c-0.449219 -0.1875 -0.921875 -0.347656 -1.37891 -0.5
c-0.472656 -0.140625 -0.953125 -0.257812 -1.43359 -0.359375c-0.480469 -0.0898438 -0.96875 -0.167969 -1.44922 -0.21875c-0.492188 -0.0507812 -0.992188 -0.0703125 -1.48047 -0.0703125c-0.492188 0 -0.984375 0.0195312 -1.47266 0.0703125
c-0.492188 0.0507812 -0.984375 0.128906 -1.46484 0.21875c-0.480469 0.101562 -0.960938 0.21875 -1.41797 0.359375c-0.472656 0.152344 -0.933594 0.3125 -1.38281 0.5c-0.460938 0.191406 -0.898438 0.402344 -1.33203 0.632812
c-0.429688 0.21875 -0.859375 0.480469 -1.26172 0.75c-0.410156 0.269531 -0.808594 0.5625 -1.19141 0.871094c-0.378906 0.308594 -0.75 0.652344 -1.08984 0.992188c-0.351562 0.347656 -0.679688 0.71875 -1 1.10156
c-0.300781 0.378906 -0.601562 0.769531 -0.871094 1.17969s-0.519531 0.832031 -0.75 1.26172s-0.441406 0.878906 -0.632812 1.33203c-0.1875 0.449219 -0.347656 0.917969 -0.5 1.37891c-0.136719 0.472656 -0.257812 0.953125 -0.359375 1.43359
c-0.0898438 0.480469 -0.167969 0.96875 -0.210938 1.44922c-0.0507812 0.492188 -0.078125 0.992188 -0.078125 1.48047c0 0.492188 0.0273438 0.991211 0.078125 1.47168c0.0429688 0.492188 0.121094 0.980469 0.210938 1.46094
c0.101562 0.480469 0.21875 0.960938 0.359375 1.42188c0.152344 0.472656 0.3125 0.941406 0.5 1.39062c0.191406 0.453125 0.402344 0.890625 0.632812 1.32422c0.230469 0.4375 0.480469 0.859375 0.75 1.26953c0.269531 0.402344 0.570312 0.800781 0.871094 1.17969
c0.320312 0.382812 0.648438 0.753906 1 1.10156c0.339844 0.339844 0.710938 0.683594 1.08984 0.992188c0.382812 0.308594 0.78125 0.601562 1.19141 0.871094c0.402344 0.269531 0.832031 0.519531 1.26172 0.75c0.433594 0.230469 0.871094 0.441406 1.33203 0.628906
c0.449219 0.191406 0.910156 0.351562 1.38281 0.503906c0.457031 0.136719 0.941406 0.257812 1.41797 0.359375c0.484375 0.0898438 0.972656 0.167969 1.46484 0.210938c0.980469 0.0976562 1.97266 0.0976562 2.95312 0
c0.480469 -0.0429688 0.96875 -0.121094 1.44922 -0.210938c0.480469 -0.101562 0.960938 -0.222656 1.43359 -0.359375c0.457031 -0.152344 0.929688 -0.3125 1.37891 -0.503906c0.449219 -0.1875 0.902344 -0.398438 1.33203 -0.628906s0.851562 -0.480469 1.26172 -0.75
s0.800781 -0.5625 1.17969 -0.871094c0.382812 -0.308594 0.753906 -0.652344 1.10156 -0.992188c0.339844 -0.347656 0.683594 -0.71875 0.992188 -1.10156c0.308594 -0.378906 0.601562 -0.777344 0.871094 -1.17969
c0.269531 -0.410156 0.53125 -0.832031 0.761719 -1.26953c0.21875 -0.433594 0.4375 -0.871094 0.621094 -1.32422c0.1875 -0.449219 0.359375 -0.917969 0.5 -1.39062c0.136719 -0.460938 0.257812 -0.941406 0.359375 -1.42188zM91.5469 200.156zM91.5469 131.294
c0.0976562 -0.480469 0.167969 -0.972656 0.21875 -1.46484c0.0507812 -0.480469 0.0703125 -0.980469 0.0703125 -1.46875c0 -0.492188 -0.0195312 -0.992188 -0.0703125 -1.48438c-0.046875 -0.480469 -0.117188 -0.96875 -0.21875 -1.44922
s-0.21875 -0.960938 -0.359375 -1.43359c-0.140625 -0.457031 -0.3125 -0.929688 -0.5 -1.37891c-0.183594 -0.449219 -0.402344 -0.890625 -0.621094 -1.32031c-0.230469 -0.441406 -0.492188 -0.863281 -0.761719 -1.27344
c-0.269531 -0.398438 -0.5625 -0.800781 -0.871094 -1.17969c-0.308594 -0.382812 -0.652344 -0.75 -0.992188 -1.10156c-0.347656 -0.339844 -0.71875 -0.679688 -1.10156 -0.992188c-0.378906 -0.308594 -0.769531 -0.601562 -1.17969 -0.871094
s-0.832031 -0.519531 -1.26172 -0.75s-0.882812 -0.441406 -1.33203 -0.628906c-0.449219 -0.191406 -0.921875 -0.351562 -1.37891 -0.5c-0.472656 -0.140625 -0.953125 -0.261719 -1.43359 -0.363281c-0.480469 -0.0898438 -0.96875 -0.167969 -1.44922 -0.21875
c-0.492188 -0.0507812 -0.992188 -0.0703125 -1.48047 -0.0703125c-0.492188 0 -0.984375 0.0195312 -1.47266 0.0703125c-0.492188 0.0507812 -0.984375 0.128906 -1.46484 0.21875c-0.480469 0.101562 -0.960938 0.222656 -1.41797 0.363281
c-0.472656 0.148438 -0.933594 0.308594 -1.38281 0.5c-0.460938 0.1875 -0.898438 0.398438 -1.33203 0.628906c-0.429688 0.230469 -0.859375 0.480469 -1.26172 0.75c-0.410156 0.269531 -0.808594 0.5625 -1.19141 0.871094
c-0.378906 0.3125 -0.75 0.652344 -1.08984 0.992188c-0.351562 0.351562 -0.679688 0.71875 -1 1.10156c-0.300781 0.378906 -0.601562 0.78125 -0.871094 1.17969c-0.269531 0.410156 -0.519531 0.832031 -0.75 1.27344
c-0.230469 0.429688 -0.441406 0.871094 -0.632812 1.32031c-0.1875 0.449219 -0.347656 0.921875 -0.5 1.37891c-0.136719 0.472656 -0.257812 0.953125 -0.359375 1.43359c-0.0898438 0.480469 -0.167969 0.96875 -0.210938 1.44922
c-0.0507812 0.492188 -0.078125 0.992188 -0.078125 1.48438c0 0.488281 0.0273438 0.988281 0.078125 1.46875c0.0429688 0.492188 0.121094 0.984375 0.210938 1.46484c0.101562 0.480469 0.21875 0.960938 0.359375 1.41797
c0.152344 0.472656 0.3125 0.941406 0.5 1.39453c0.191406 0.449219 0.402344 0.890625 0.632812 1.32031c0.230469 0.441406 0.480469 0.859375 0.75 1.26953c0.269531 0.402344 0.570312 0.800781 0.871094 1.18359c0.320312 0.378906 0.648438 0.75 1 1.09766
c0.339844 0.34375 0.710938 0.683594 1.08984 0.992188c0.382812 0.3125 0.78125 0.601562 1.19141 0.871094c0.402344 0.269531 0.832031 0.519531 1.26172 0.75c0.433594 0.230469 0.871094 0.441406 1.33203 0.632812c0.449219 0.1875 0.910156 0.347656 1.38281 0.5
c0.457031 0.140625 0.941406 0.257812 1.41797 0.359375c0.484375 0.0898438 0.972656 0.171875 1.46484 0.21875c0.980469 0.101562 1.97266 0.101562 2.95312 0c0.480469 -0.046875 0.96875 -0.128906 1.44922 -0.21875
c0.480469 -0.101562 0.960938 -0.21875 1.43359 -0.359375c0.457031 -0.152344 0.929688 -0.3125 1.37891 -0.5c0.449219 -0.191406 0.902344 -0.402344 1.33203 -0.632812s0.851562 -0.480469 1.26172 -0.75s0.800781 -0.558594 1.17969 -0.871094
c0.382812 -0.308594 0.753906 -0.648438 1.10156 -0.992188c0.339844 -0.347656 0.683594 -0.71875 0.992188 -1.09766c0.308594 -0.382812 0.601562 -0.78125 0.871094 -1.18359c0.269531 -0.410156 0.53125 -0.828125 0.761719 -1.26953
c0.21875 -0.429688 0.4375 -0.871094 0.621094 -1.32031c0.1875 -0.453125 0.359375 -0.921875 0.5 -1.39453c0.136719 -0.457031 0.257812 -0.9375 0.359375 -1.41797zM91.5469 131.294zM91.5469 62.4268c0.0976562 -0.480469 0.167969 -0.972656 0.21875 -1.45312
c0.0507812 -0.488281 0.0703125 -0.992188 0.0703125 -1.48047c0 -0.492188 -0.0195312 -0.980469 -0.0703125 -1.47266c-0.046875 -0.488281 -0.117188 -0.980469 -0.21875 -1.46094s-0.21875 -0.960938 -0.359375 -1.42188
c-0.140625 -0.46875 -0.3125 -0.941406 -0.5 -1.39062c-0.183594 -0.449219 -0.402344 -0.890625 -0.621094 -1.32031c-0.230469 -0.441406 -0.492188 -0.863281 -0.761719 -1.27344c-0.269531 -0.398438 -0.5625 -0.800781 -0.871094 -1.17969
s-0.652344 -0.75 -0.992188 -1.10156c-0.347656 -0.339844 -0.71875 -0.679688 -1.10156 -0.992188c-0.378906 -0.308594 -0.769531 -0.597656 -1.17969 -0.867188c-0.410156 -0.273438 -0.832031 -0.523438 -1.26172 -0.753906s-0.882812 -0.4375 -1.33203 -0.628906
s-0.921875 -0.351562 -1.37891 -0.5c-0.472656 -0.140625 -0.953125 -0.261719 -1.43359 -0.351562c-0.480469 -0.101562 -0.96875 -0.179688 -1.44922 -0.21875c-0.492188 -0.0507812 -0.992188 -0.0820312 -1.48047 -0.0820312
c-0.492188 0 -0.984375 0.03125 -1.47266 0.0820312c-0.492188 0.0390625 -0.984375 0.117188 -1.46484 0.21875c-0.480469 0.0898438 -0.960938 0.210938 -1.41797 0.351562c-0.472656 0.148438 -0.933594 0.308594 -1.38281 0.5
c-0.460938 0.191406 -0.898438 0.398438 -1.33203 0.628906c-0.429688 0.230469 -0.859375 0.480469 -1.26172 0.753906c-0.410156 0.269531 -0.808594 0.558594 -1.19141 0.867188c-0.378906 0.3125 -0.75 0.652344 -1.08984 0.992188
c-0.351562 0.351562 -0.679688 0.722656 -1 1.10156c-0.300781 0.378906 -0.601562 0.78125 -0.871094 1.17969c-0.269531 0.410156 -0.519531 0.832031 -0.75 1.27344c-0.230469 0.429688 -0.441406 0.871094 -0.632812 1.32031
c-0.1875 0.449219 -0.347656 0.921875 -0.5 1.39062c-0.136719 0.460938 -0.257812 0.941406 -0.359375 1.42188c-0.0898438 0.480469 -0.167969 0.972656 -0.210938 1.46094c-0.0507812 0.492188 -0.078125 0.980469 -0.078125 1.47266
c0 0.488281 0.0273438 0.992188 0.078125 1.48047c0.0429688 0.480469 0.121094 0.972656 0.210938 1.45312c0.101562 0.480469 0.21875 0.960938 0.359375 1.42969c0.152344 0.460938 0.3125 0.929688 0.5 1.38281c0.191406 0.449219 0.402344 0.898438 0.632812 1.33203
c0.230469 0.429688 0.480469 0.847656 0.75 1.25781c0.269531 0.414062 0.570312 0.800781 0.871094 1.18359c0.320312 0.378906 0.648438 0.75 1 1.10156c0.339844 0.339844 0.710938 0.679688 1.08984 0.988281c0.382812 0.3125 0.78125 0.601562 1.19141 0.871094
c0.402344 0.273438 0.832031 0.53125 1.26172 0.761719c0.433594 0.21875 0.871094 0.441406 1.33203 0.621094c0.449219 0.191406 0.910156 0.359375 1.38281 0.5c0.457031 0.140625 0.941406 0.261719 1.41797 0.359375
c0.484375 0.0898438 0.972656 0.171875 1.46484 0.222656c0.980469 0.0976562 1.97266 0.0976562 2.95312 0c0.480469 -0.0507812 0.96875 -0.132812 1.44922 -0.222656c0.480469 -0.0976562 0.960938 -0.21875 1.43359 -0.359375
c0.457031 -0.140625 0.929688 -0.308594 1.37891 -0.5c0.449219 -0.179688 0.902344 -0.402344 1.33203 -0.621094c0.429688 -0.230469 0.851562 -0.488281 1.26172 -0.761719c0.410156 -0.269531 0.800781 -0.558594 1.17969 -0.871094
c0.382812 -0.308594 0.753906 -0.648438 1.10156 -0.988281c0.339844 -0.351562 0.683594 -0.722656 0.992188 -1.10156c0.308594 -0.382812 0.601562 -0.769531 0.871094 -1.18359c0.269531 -0.410156 0.53125 -0.828125 0.761719 -1.25781
c0.21875 -0.433594 0.4375 -0.882812 0.621094 -1.33203c0.1875 -0.453125 0.359375 -0.921875 0.5 -1.38281c0.136719 -0.46875 0.257812 -0.949219 0.359375 -1.42969zM91.5469 62.4268z" />
    <glyph glyph-name="204-pin" unicode="&#xf1cb;" 
d="M180.473 -64l-10.8359 11.6406c-1.55859 1.67188 -38.5781 41.6055 -77.9023 98.1328c-53.375 76.7305 -83.5625 144.012 -89.7188 199.984c-1.01953 8.08984 -1.51562 15.375 -1.51562 22.2695c0 99.2344 80.7383 179.973 179.977 179.973
c99.207 0 179.945 -80.7227 179.977 -179.941c0 -6.70312 -0.484375 -13.8945 -1.48438 -21.9805c-6.01953 -55.9922 -36.168 -123.34 -89.6133 -200.172c-39.375 -56.5977 -76.4844 -96.5938 -78.043 -98.2695zM180.477 418.383
c-82.9062 0 -150.359 -67.4531 -150.359 -150.359c0 -5.67188 0.425781 -11.7812 1.30078 -18.6719l0.0273438 -0.25c11.2383 -102.73 114.891 -229.715 149.035 -269.086c34.1914 39.3984 138.074 166.586 149.051 269.34l0.03125 0.25
c0.867188 7.00781 1.27344 12.8711 1.27344 18.4492c-0.0273438 82.8867 -67.4805 150.328 -150.359 150.328zM180.477 146.973c-66.7461 0 -121.051 54.3047 -121.051 121.051s54.3047 121.051 121.051 121.051c66.7305 0 121.02 -54.3047 121.02 -121.051
s-54.2891 -121.051 -121.02 -121.051zM180.477 359.453c-50.4141 0 -91.4297 -41.0156 -91.4297 -91.4297s41.0156 -91.4297 91.4297 -91.4297c50.3984 0 91.4023 41.0156 91.4023 91.4297s-41.0039 91.4297 -91.4023 91.4297zM180.477 359.453z" />
    <glyph glyph-name="002-search" unicode="&#xf101;" 
d="M506.169 -30.0186c7.77637 -7.77441 7.77637 -20.376 0.00292969 -28.1504c-3.88867 -3.88867 -8.98438 -5.83105 -14.0781 -5.83105s-10.1895 1.94238 -14.0752 5.83105l-124.955 124.953c-37.3496 -31.0586 -85.3135 -49.7686 -137.568 -49.7686
c-118.825 0 -215.495 96.665 -215.495 215.484c0 118.827 96.6699 215.5 215.495 215.5c118.821 0 215.491 -96.6729 215.491 -215.5c0 -52.2578 -18.7119 -100.219 -49.7705 -137.568zM39.8125 232.5c0 -96.8662 78.8105 -175.672 175.683 -175.672
c96.8691 0 175.677 78.8057 175.677 175.672c0 96.875 -78.8076 175.688 -175.677 175.688c-96.8721 0 -175.683 -78.8125 -175.683 -175.688z" />
    <glyph glyph-name="114-key-1" unicode="&#xf171;" 
d="M466.748 402.75c60.3477 -60.3467 60.3232 -158.003 -0.0078125 -218.333c-40.2598 -40.2607 -99.1123 -54.8613 -153.043 -38.8867l-203.763 -203.761c-4.00195 -4.00293 -9.45898 -6.02344 -14.9277 -5.74121l-72.6074 3.71191
c-10.084 0.515625 -18.1445 8.57617 -18.6602 18.6602l-3.71191 72.6074c-0.285156 5.56445 1.80176 10.9883 5.74121 14.9277l203.76 203.763c-15.9736 53.9346 -1.37402 112.783 38.8857 153.043c60.3467 60.3457 158.001 60.3428 218.334 0.00878906zM438.893 212.263
c44.9541 44.9551 44.9502 117.698 0.00683594 162.642c-44.9551 44.9551 -117.699 44.9316 -162.64 -0.00878906c-32.3145 -32.3154 -42.4414 -80.7041 -25.7939 -123.274c2.84668 -7.28418 1.11426 -15.5635 -4.41602 -21.0938l-206.248 -206.248l2.3584 -46.1152
l46.1143 -2.3584l18.4863 18.4863l-10.4062 10.4062c-7.68945 7.68945 -7.68945 20.1562 0 27.8467c7.69043 7.68945 20.1582 7.68945 27.8477 0l10.4053 -10.4062l15.3506 15.3506l-10.4062 10.4053c-7.69043 7.69043 -7.69043 20.1572 0 27.8477
c7.69043 7.68945 20.1582 7.68945 27.8467 0l10.4062 -10.4062l116.72 116.718c5.53027 5.53223 13.8096 7.2627 21.0938 4.41602c13.6055 -5.32129 27.8105 -7.90625 41.8887 -7.90723c29.9756 -0.00292969 59.3975 11.7119 81.3857 33.7002zM418.437 354.439
c28.833 -28.833 33.9209 -68.916 11.585 -91.252c-22.3379 -22.3389 -62.4199 -17.2451 -91.25 11.585c-28.833 28.833 -33.9209 68.9141 -11.585 91.25c22.334 22.3369 62.4189 17.2471 91.25 -11.583zM402.174 291.035c7.20605 7.2041 -2.2002 26.1719 -11.5869 35.5566
c-9.37695 9.37891 -28.3457 18.792 -35.5547 11.585c-4.91895 -4.9209 -2.45605 -21.5146 11.585 -35.5566c14.0488 -14.0479 30.6396 -16.5 35.5566 -11.585z" />
    <glyph glyph-name="139-browser" unicode="&#xf18a;" 
d="M495.304 386.783c9.22168 0 16.6963 -7.47656 16.6973 -16.6963v-356.174c0 -9.2207 -7.47559 -16.6963 -16.6963 -16.6963h-478.608c-9.22168 0 -16.6963 7.47656 -16.6963 16.6963v356.174c0 9.21973 7.47461 16.6963 16.6963 16.6963h478.607zM478.609 30.6094
h-0.000976562v222.966h-445.218v-222.966h445.219zM478.609 286.966h-0.000976562v66.4248h-445.218v-66.4248h445.219zM443.568 344.753c12.2744 0 22.2607 -9.98633 22.2607 -22.2607c0 -12.2754 -9.98633 -22.2607 -22.2607 -22.2607
c-12.2754 0 -22.2617 9.98535 -22.2617 22.2607c0 12.2744 9.98633 22.2607 22.2617 22.2607zM382.926 344.753c12.2754 0 22.2607 -9.98633 22.2607 -22.2607c0 -12.2754 -9.98535 -22.2607 -22.2607 -22.2607c-12.2744 0 -22.2607 9.98535 -22.2607 22.2607
c0 12.2744 9.98633 22.2607 22.2607 22.2607zM322.284 344.753c12.2744 0 22.2607 -9.98633 22.2607 -22.2607c0 -12.2754 -9.98633 -22.2607 -22.2607 -22.2607c-12.2754 0 -22.2607 9.98535 -22.2607 22.2607c0 12.2744 9.98535 22.2607 22.2607 22.2607zM426.025 221.451
c9.2207 0 16.6943 -7.47559 16.6943 -16.6963s-7.47559 -16.6963 -16.6953 -16.6963h-141.66c-9.22168 0 -16.6963 7.47559 -16.6963 16.6963s7.47559 16.6963 16.6963 16.6963h141.661zM426.025 158.788c9.2207 0 16.6943 -7.47461 16.6943 -16.6963
c0 -9.2207 -7.47559 -16.6953 -16.6953 -16.6953h-141.66c-9.22168 0 -16.6963 7.47559 -16.6963 16.6953c0 9.22168 7.47559 16.6963 16.6963 16.6963h141.661zM426.025 96.124c9.2207 0 16.6943 -7.47559 16.6943 -16.6963s-7.47559 -16.6953 -16.6953 -16.6953h-141.66
c-9.22168 0 -16.6963 7.47559 -16.6963 16.6953c0 9.22168 7.47559 16.6963 16.6963 16.6963h141.661zM206.296 226.786c9.21973 0 16.6963 -7.47559 16.6963 -16.6963v-135.997c0 -9.2207 -7.47656 -16.6953 -16.6963 -16.6953h-120.321
c-9.2207 0 -16.6953 7.47559 -16.6953 16.6953v135.997c0 9.2207 7.47559 16.6963 16.6953 16.6963h120.321zM189.6 90.7891v102.605h-86.9297v-102.605h86.9297z" />
    <glyph glyph-name="134-spreadsheet-5" unicode="&#xf185;" 
d="M404.68 342.185c9.02637 0 16.3418 -7.31543 16.3428 -16.3398v-267.688c0 -9.02441 -7.31641 -16.3398 -16.3408 -16.3398h-297.361c-9.02441 0 -16.3398 7.31543 -16.3398 16.3398v267.688c0 9.02441 7.31543 16.3398 16.3398 16.3398h297.359zM239.773 74.4961
v56.5479h-116.113v-56.5479h116.113zM239.773 163.725v56.5508h-116.113v-56.5508h116.113zM388.341 74.4961v56.5479h-115.887v-56.5479h115.887zM388.341 163.725v56.5508h-115.887v-56.5508h115.887zM388.341 252.955v56.5488h-264.681v-56.5488h264.681z
M70.4434 161.535c10.8672 -6.27637 10.8887 -22.0137 0 -28.3027l-45.9326 -26.5186c-10.7959 -6.2334 -24.5107 1.49902 -24.5107 14.1514v53.0381c0 12.5518 13.624 20.4375 24.5107 14.1504zM487.489 188.054c10.8701 6.27734 24.5107 -1.5791 24.5107 -14.1494v-53.0381
c0 -12.5859 -13.6465 -20.4248 -24.5107 -14.1514l-45.9326 26.5186c-10.8711 6.27637 -10.8867 22.0146 0 28.3018z" />
    <glyph glyph-name="105-girl" unicode="&#xf168;" 
d="M511.184 -34.1494c3.47168 -10.7617 -4.56348 -21.8184 -15.8887 -21.8184h-478.59c-11.3066 0 -19.3643 11.041 -15.8887 21.8184l50.0508 155.22c1.30566 4.0459 4.10352 7.44238 7.82617 9.49512l26.8281 14.7969c-0.780273 11.7061 -0.5 33.5732 -0.5 123.549
c0.0302734 93.2725 74.5586 168.987 167.404 170.892c0.0078125 0.000976562 0.015625 0.00195312 0.0244141 0.00195312l0.885742 0.0253906c0.0322266 0.000976562 0.0654297 -0.00195312 0.0986328 -0.00195312c87.293 3.7959 173.544 -70.1455 173.544 -170.962
c0 -89.9004 0.313477 -111.451 -0.507812 -123.498l26.835 -14.8027c3.72168 -2.05176 6.52051 -5.44922 7.82617 -9.49512zM118.411 268.905c0 -59.6846 -0.121094 -89.374 0.0117188 -105.392l46.1562 25.4561c-22.2539 31.3887 -19.9473 63.6719 -19.9473 79.8975
c0 6.9873 4.35156 13.2354 10.9043 15.6582c24.9219 9.21875 46.6621 26.6133 61.2158 48.9854c5.89941 9.06738 18.7627 10.2148 26.1699 2.31934c27.001 -28.7734 66.5371 -43.1406 105.758 -38.4229c9.85449 1.2041 18.6885 -6.5127 18.6885 -16.5752
c0 -26.2832 3.05273 -59.7314 -19.8877 -91.8916l46.1016 -25.4297c0.142578 16.3145 0.00683594 46.3721 0.00683594 105.355c0 82.0752 -70.958 141.222 -139.791 137.557h-0.00195312c-0.291992 -0.0146484 -0.587891 -0.0224609 -0.879883 -0.0224609
c-0.0673828 0 -0.135742 0.00878906 -0.204102 0.00976562c-0.0917969 0.000976562 -0.182617 -0.00488281 -0.272461 -0.00292969c-73.6182 -1.86621 -134.001 -61.9766 -134.028 -137.502zM334.113 263.131c-35.3809 -0.376953 -71.8799 12.0791 -101.162 36.3379
c-15.6016 -18.4131 -34.7529 -32.4941 -54.9941 -41.7764c0.378906 -53.7461 38.9375 -82.8789 78.042 -82.8789c39.8994 0 78.0869 28.5361 78.1143 88.3174zM39.6299 -22.5781v-0.000976562h432.739l-40.9844 127.102c-12.3701 6.82422 -90.1348 49.7188 -107.993 59.5693
c-40.7598 -30.998 -96.1113 -29.4824 -134.765 0.00683594c-10.8076 -5.96094 -97.0107 -53.5068 -108.013 -59.5752z" />
    <glyph glyph-name="004-right-arrow" unicode="&#xf103;" 
d="M504.416 257.338c10.1143 -6.57617 10.1104 -21.4111 -0.000976562 -27.9863l-213.428 -138.829c-11.0859 -7.21094 -25.7959 0.764648 -25.7959 13.9941v66.2646c-121.142 -16.3535 -168.012 -95.0947 -235.389 -179.375
c-11.2285 -14.0449 -34.1055 -2.61426 -29.0957 14.9922l26.8848 94.4727c31.7227 111.51 125.523 192.469 237.6 209.391v71.9111c0 13.2266 14.707 21.207 25.7959 13.9941zM298.579 135.291l166.121 108.054l-166.12 108.056v-55.874
c0 -8.58301 -6.50977 -15.7676 -15.0527 -16.6123c-102.056 -10.0762 -192.208 -76.085 -227.999 -201.861l15.5576 19.4629c51.3096 64.1758 127.749 104.036 209.719 109.358c9.61426 0.625977 17.7744 -7.01367 17.7744 -16.6582v-53.9248z" />
    <glyph glyph-name="224-cloud-computing" unicode="&#xf1df;" 
d="M265.39 122.811c-79.7969 0 -162.31 0 -166.329 0.015625l-0.387695 0.0078125c-55.3301 1.6709 -98.6729 46.3477 -98.6729 101.714c0 42.8418 26.9043 81.123 67.0918 95.6865c0.0976562 35.3857 28.9238 64.1455 64.3408 64.1455
c15.3428 0 30.0391 -5.42871 41.667 -15.3389c21.2139 47.7461 68.3447 78.458 120.775 78.458c72.8564 0 132.129 -59.2725 132.129 -132.125c0 -1.28027 -0.0273438 -2.61816 -0.0820312 -4.2041c48.9785 -3.72949 87.0801 -44.7041 87.0801 -94.0664
c0 -51.041 -39.9453 -92.4502 -90.9395 -94.2656l-0.665039 -0.0117188c-2.07031 -0.0078125 -62.3447 -0.015625 -156.008 -0.015625zM99.3896 152.908c6.00781 -0.0195312 90.9473 -0.0195312 166 -0.0195312c89.5811 0 152.312 0.0117188 155.843 0.0195312
c34.6152 1.3584 61.6875 29.5107 61.6875 64.1953c0 34.0312 -26.5791 62.208 -60.5166 64.1533c-15.3467 0.879883 -27.2803 14.082 -26.6064 29.4277c0.0859375 1.96484 0.125 3.40918 0.125 4.68945c0 56.2656 -45.7773 102.043 -102.047 102.043
c-41.1514 0 -78.0781 -24.4971 -94.0703 -62.4111c-3.58203 -8.46191 -11.0693 -14.6689 -20.0312 -16.6221c-8.99023 -1.94531 -18.3838 0.610352 -25.1396 6.83301c-6.34766 5.85938 -14.583 9.08105 -23.2012 9.08105c-18.7793 0 -34.0742 -15.1826 -34.2588 -33.9102
c0.0117188 -0.37207 0.0234375 -0.755859 0.0234375 -1.13086c0.137695 -12.1455 -7.46777 -22.9785 -18.9512 -26.9824c-28.8135 -10.0156 -48.1641 -37.2334 -48.1641 -67.7266c0 -38.9355 30.4268 -70.3643 69.3076 -71.6396zM99.3896 152.908z" />
    <glyph glyph-name="031-room-door" unicode="&#xf11e;" 
d="M445.217 448c9.22168 0 16.6963 -7.47461 16.6973 -16.6963v-478.608c0 -9.22168 -7.47559 -16.6963 -16.6963 -16.6963h-378.435c-9.22168 0 -16.6963 7.47559 -16.6963 16.6963v478.608c0 9.22168 7.47656 16.6963 16.6963 16.6963h378.434zM428.522 -30.6094
h-0.000976562v445.219h-345.044v-445.219h345.045zM389.565 392.348c9.2207 0 16.6953 -7.47461 16.6953 -16.6953v-367.305c0 -9.2207 -7.47559 -16.6953 -16.6953 -16.6953h-267.131c-9.2207 0 -16.6953 7.47559 -16.6953 16.6953v367.305
c0 9.2207 7.47559 16.6953 16.6953 16.6953h267.131zM372.87 25.043v333.913h-233.74v-333.913h233.74zM317.217 225.391c18.4121 0 33.3926 -14.9785 33.3916 -33.3906c0 -18.4121 -14.9795 -33.3906 -33.3916 -33.3906s-33.3906 14.9785 -33.3906 33.3906
s14.9785 33.3906 33.3906 33.3906z" />
    <glyph glyph-name="017-spreadsheet" unicode="&#xf110;" 
d="M494.14 401.506c9.86328 0 17.8604 -7.99707 17.8584 -17.8613v-142.919c0 -9.8623 -7.99609 -17.8594 -17.8604 -17.8594h-20.0166v-222.511c0 -9.86328 -7.99609 -17.8604 -17.8604 -17.8604h-400.522c-9.86328 0 -17.8604 7.99609 -17.8604 17.8604v222.512h-20.0176
c-9.86328 0 -17.8604 7.99609 -17.8604 17.8594v142.918c0 9.86426 7.99707 17.8613 17.8604 17.8613h476.279zM238.291 18.2139h-0.000976562v84.4658h-164.691v-84.4658h164.692zM238.291 138.401h-0.000976562v84.4658h-164.691v-84.4658h164.692zM438.402 18.2148
v84.4658h-164.391v-84.4658h164.391zM438.402 138.401v84.4658h-164.391v-84.4658h164.39h0.000976562zM476.279 258.587v107.198h-440.559v-107.198h440.559zM288.781 312.63c9.86328 0 17.8604 -7.99707 17.8594 -17.8604c0 -9.8623 -7.99609 -17.8594 -17.8594 -17.8594
h-65.5625c-9.8623 0 -17.8594 7.99609 -17.8594 17.8594s7.99609 17.8604 17.8594 17.8604h65.5625zM160.319 312.63c9.86328 0 17.8604 -7.99707 17.8594 -17.8604c0 -9.8623 -7.99609 -17.8594 -17.8594 -17.8594h-65.5625c-9.86328 0 -17.8594 7.99609 -17.8594 17.8594
s7.99512 17.8604 17.8594 17.8604h65.5625zM417.547 312.63c9.86328 0 17.8604 -7.99707 17.8604 -17.8604c0 -9.8623 -7.99609 -17.8594 -17.8604 -17.8594h-65.5615c-9.86328 0 -17.8604 7.99609 -17.8604 17.8594s7.99609 17.8604 17.8604 17.8604h65.5615z" />
    <glyph glyph-name="192-music-1" unicode="&#xf1bf;" 
d="M435.697 448c9.2207 0 16.6953 -7.47461 16.6973 -16.6953v-478.609c0 -9.22168 -7.47559 -16.6963 -16.6953 -16.6963h-309.217c-36.875 0 -66.876 29.9951 -66.876 66.8623v378.276c0 36.8682 30.001 66.8623 66.876 66.8623h309.215zM419.003 -30.6104v344.873
h-292.521c-12.2412 0 -23.7188 3.33008 -33.4854 9.00195v-320.404c0 -18.4551 15.0225 -33.4707 33.4854 -33.4707h292.52h0.000976562zM419.003 347.653v66.9561h-292.521c-18.4639 0 -33.4854 -15.0156 -33.4854 -33.4707c0 -18.4629 15.0225 -33.4854 33.4854 -33.4854
h292.521zM312.289 245.283c10.9873 8.1582 26.6475 0.307617 26.6475 -13.4043v-180.105c0 -13.792 -15.7178 -21.5195 -26.6475 -13.4043l-68.3262 50.7373h-54.2031c-9.22168 0 -16.6963 7.47363 -16.6963 16.6963v72.0479c0 9.2207 7.47559 16.6963 16.6963 16.6963
h54.2031zM232.786 122.497v38.6572h-26.332v-38.6572h26.332zM305.546 84.9678v113.72l-39.3672 -29.2334v-55.2539z" />
    <glyph glyph-name="108-insert" unicode="&#xf16b;" 
d="M493.716 447.988c10.0986 0 18.2852 -8.18652 18.2852 -18.2842v-200.175c0 -10.0977 -8.18652 -18.2852 -18.2852 -18.2852h-81.8076v-256.947c0 -10.0977 -8.1875 -18.2852 -18.2852 -18.2852h-375.338c-10.0977 0 -18.2852 8.1875 -18.2852 18.2852v375.325
c0 10.0977 8.1875 18.2852 18.2852 18.2842h256.972v81.7969c0 10.0977 8.18652 18.2852 18.2852 18.2852h200.174zM375.338 -27.4189v238.664h-74.2266l-119.892 -119.891l37.6836 3.58301c10.0537 0.961914 18.9785 -6.41797 19.9346 -16.4727
c0.956055 -10.0537 -6.41992 -18.9775 -16.4727 -19.9336l-88.2559 -8.3916c-0.00585938 -0.000976562 -0.0136719 -0.000976562 -0.0214844 -0.00195312l-0.0107422 -0.00195312c-10.8369 -1.02539 -21.0752 7.23145 -19.9365 19.8555
c0.00292969 0.0273438 0.00195312 0.0517578 0.00390625 0.0791016l0.000976562 0.0146484c0 0.00488281 0.000976562 0.0107422 0.000976562 0.015625l8.39258 88.2578c0.957031 10.0527 9.87402 17.418 19.9346 16.4717
c10.0527 -0.957031 17.4277 -9.88086 16.4717 -19.9336l-3.58398 -37.6846l119.896 119.894v74.2324h-238.688v-338.757h338.768zM475.431 247.813v163.604h-163.604v-163.604h163.604z" />
    <glyph glyph-name="197-connector" unicode="&#xf1c4;" 
d="M347.448 279.819c9.4248 0 17.0654 -7.6416 17.0654 -17.0674v-66.9434c0 -2.84668 -0.710938 -5.64648 -2.06934 -8.14746l-38.8926 -71.5879c-2.98633 -5.49707 -8.74219 -8.91895 -14.9971 -8.91895h-105.111c-6.25488 0 -12.0107 3.42188 -14.9971 8.91895
l-38.8916 71.5879c-1.3584 2.50098 -2.06934 5.30176 -2.06934 8.14746v66.9434c0 9.42578 7.6416 17.0674 17.0664 17.0674h182.896zM330.381 200.145v45.541h-148.762h-0.000976562v-45.541l31.9756 -58.8564h84.8115zM452.26 336.701
c9.4248 0 17.0693 -7.64062 17.0693 -17.0664s-7.64258 -17.0664 -17.0674 -17.0664h-30.8564v-121.218c0 -2.84668 -0.710938 -5.64648 -2.07031 -8.14746l-61.9443 -114.021c-2.98633 -5.49707 -8.74121 -8.91895 -14.9971 -8.91895h-25.8398v-37.4414
c0 -9.42676 -7.6416 -17.0674 -17.0664 -17.0674h-26.4189v-42.6885c0 -9.42676 -7.6416 -17.0674 -17.0674 -17.0674s-17.0674 7.6416 -17.0674 17.0674v42.6904h-26.4189c-9.42578 0 -17.0664 7.64258 -17.0664 17.0674v37.4414h-25.8398
c-6.25586 0 -12.0107 3.42188 -14.9971 8.91895l-61.9443 114.021c-1.35938 2.50098 -2.07031 5.30176 -2.07031 8.14746v121.216h-30.8564c-9.42578 0 -17.0674 7.64062 -17.0674 17.0664s7.64258 17.0674 17.0674 17.0674
c7.71387 0 97.0928 0.00585938 104.807 0.00585938v94.2246c0 9.42676 7.6416 17.0674 17.0674 17.0674s17.0664 -7.64062 17.0664 -17.0674v-94.2246h114.625v94.2246c0 9.42676 7.64258 17.0674 17.0674 17.0674s17.0674 -7.64062 17.0674 -17.0674v-94.2256
c7.58594 0 97.2354 -0.00585938 104.819 -0.00585938zM229.581 29.8887h52.8369v20.375h-52.8369v-20.375zM332.241 84.3984l55.0283 101.292h-0.000976562v116.878h-262.54v-116.878l55.0283 -101.292h152.484z" />
    <glyph glyph-name="103-mail" unicode="&#xf166;" 
d="M495.304 342.261c9.16699 0 16.6963 -7.46289 16.6973 -16.6953v-267.131c0 -9.2207 -7.47559 -16.6953 -16.6963 -16.6953h-478.608c-9.22168 0 -16.6963 7.47559 -16.6963 16.6953v267.131c0 9.23535 7.53027 16.6953 16.6963 16.6953h478.607zM424.152 308.87
h-336.305c8.69141 -4.31738 162.476 -80.6953 168.152 -83.5137c5.35645 2.65918 159.283 79.1094 168.152 83.5137zM478.609 75.1299h0.000976562v223.502l-148.369 -73.6865l69.8389 -47.957c7.60059 -5.21973 9.53125 -15.6133 4.31152 -23.2139
c-5.21582 -7.59961 -15.6094 -9.53418 -23.2139 -4.31348l-85.1689 58.4824l-32.582 -16.1836c-4.67969 -2.32422 -10.1777 -2.32422 -14.8545 0l-32.583 16.1836l-85.1699 -58.4834c-7.60156 -5.21875 -17.9941 -3.28809 -23.2139 4.31348
c-5.21973 7.60059 -3.28906 17.9941 4.3125 23.2139l69.8408 47.957l-148.368 73.6875v-223.502h445.219z" />
    <glyph glyph-name="011-gestures" unicode="&#xf10a;" 
d="M503.863 297.519c12.6104 -17.377 10.3428 -41.5742 -5.26465 -56.3174l-109.888 -105.066c-3.55762 -3.40039 -8.49512 -4.94629 -13.3594 -4.19141l-128.387 20.04l-28.1621 -15.0576l5.70703 -5.70703c6.1709 -6.17188 6.16895 -16.1797 0 -22.3486l-54.582 -54.582
c-6.17188 -6.17285 -16.1777 -6.17188 -22.3486 0l-142.95 142.95c-6.17188 6.17188 -6.17188 16.1768 0 22.3486l54.5811 54.5811c6.17188 6.17188 16.1777 6.17188 22.3486 0l7.35352 -7.35254l69.9277 63.4277c2.9082 2.63672 6.69238 4.09766 10.6182 4.09766h132.309
c24.8662 0 45.0967 -20.2344 45.0967 -45.1064c0 -18.0527 -10.6631 -33.6611 -26.0205 -40.8604l37.9336 -15.1895l81.8125 71.083c18.915 16.9443 48.3691 13.792 63.2744 -6.74902zM158.753 87.8135l32.2314 32.2314l-120.601 120.6l-32.2305 -32.2314zM476.882 264.168
c4.10938 3.86816 4.71094 10.2256 1.40234 14.7871c-3.93359 5.41797 -11.6807 6.21777 -16.6367 1.74023c-0.0751953 -0.0673828 -0.151367 -0.135742 -0.228516 -0.201172l-89.1953 -77.4961c-4.47168 -3.88379 -10.7383 -4.94238 -16.2393 -2.74121l-112.417 45.0127
c-16.0752 6.43652 -11.4404 30.4746 5.875 30.4746h52.3232c7.43848 0 13.4902 6.05176 13.4902 13.4912c0 7.44238 -6.05176 13.5 -13.4902 13.5h-126.209l-64.2686 -58.2949l84.1602 -84.1592l41.2744 22.0693c3.02637 1.61816 6.49902 2.20605 9.88965 1.67871
l125.897 -19.6514l104.281 99.7051c0.03125 0.0283203 0.0595703 0.0566406 0.0908203 0.0849609z" />
    <glyph glyph-name="109-diary" unicode="&#xf16c;" 
d="M435.697 448c9.2207 0 16.6953 -7.47461 16.6973 -16.6953v-478.609c0 -9.22168 -7.47559 -16.6963 -16.6953 -16.6963h-309.217c-36.875 0 -66.876 29.9951 -66.876 66.8623v378.276c0 36.8682 30.001 66.8623 66.876 66.8623h309.215zM143.178 -30.6104h-0.000976562
v344.873c-16.4971 0 -32.042 -1.53418 -50.1807 9.00195v-320.404c0 -18.4551 15.0215 -33.4707 33.4854 -33.4707h16.6963zM419.003 208.12v106.142h-242.434v-344.873h242.434v106.142l-89.7832 51.8369c-11.1064 6.41113 -11.126 22.4941 0 28.917zM418.931 169.523
l-47.9717 -27.6973l47.9717 -27.6982v55.3955zM419.003 347.653v66.9561h-292.521c-18.4639 0 -33.4854 -15.0156 -33.4854 -33.4707c0 -18.4629 15.0225 -33.4854 33.4854 -33.4854h292.521z" />
    <glyph glyph-name="133-music" unicode="&#xf184;" 
d="M256 448c141.503 0 256 -114.509 256 -256c0 -141.503 -114.509 -256 -256 -256c-141.503 0 -256 114.509 -256 256c0 141.503 114.509 256 256 256zM141.675 382.076c-30.9824 -18.7051 -57.0459 -44.7686 -75.751 -75.752l112.603 -56.498
c5.57422 7.4502 12.1973 14.0732 19.6475 19.6475zM256 254.578c-34.5049 0 -62.5781 -28.0732 -62.5781 -62.5781s28.0732 -62.5781 62.5781 -62.5781s62.5781 28.0723 62.5781 62.5781s-28.0732 62.5781 -62.5781 62.5781zM256 -29.8672
c122.337 0 221.867 99.5283 221.867 221.866s-99.5303 221.867 -221.867 221.867c-29.6484 0 -57.9512 -5.86035 -83.8271 -16.46l56.5205 -112.647c8.66602 2.55664 17.8242 3.95215 27.3066 3.95215c53.3262 0 96.71 -43.3848 96.71 -96.7109
s-43.3838 -96.7109 -96.7109 -96.7109c-53.3262 0 -96.7109 43.3848 -96.7109 96.7109c0 9.4834 1.39648 18.6416 3.95215 27.3066l-112.647 56.5215c-10.5986 -25.8779 -16.46 -54.1787 -16.46 -83.8281c0 -122.338 99.5303 -221.867 221.867 -221.867z" />
    <glyph glyph-name="102-monitor" unicode="&#xf165;" 
d="M470.553 422.923c22.8555 0 41.4482 -18.5928 41.4463 -41.4482v-278.64c0 -22.8545 -18.5938 -41.4473 -41.4482 -41.4473h-129.039l16.3975 -64.7842h61.0947c9.80957 0 17.7627 -7.95312 17.7627 -17.7637c0 -9.80957 -7.95312 -17.7627 -17.7627 -17.7627h-326.009
c-9.80957 0 -17.7627 7.95312 -17.7627 17.7627c0 9.81055 7.95312 17.7637 17.7627 17.7637h61.0938l16.3975 64.7842h-129.038c-22.8555 0 -41.4482 18.5938 -41.4482 41.4473v278.64c0 22.8555 18.5928 41.4482 41.4482 41.4482h429.104zM190.737 -3.39551h130.526
l-16.3975 64.7842h-97.7314zM476.475 102.835v278.64c0 3.26562 -2.65527 5.9209 -5.9209 5.9209h-429.105c-3.26562 0 -5.9209 -2.65527 -5.9209 -5.9209v-278.64c0 -3.26465 2.65527 -5.9209 5.9209 -5.9209h429.105c3.26562 0 5.9209 2.65625 5.9209 5.9209z
M435.026 363.712c9.81055 0 17.7637 -7.95312 17.7637 -17.7627v-207.587c0 -9.80957 -7.95312 -17.7627 -17.7637 -17.7627h-358.052c-9.81055 0 -17.7637 7.95312 -17.7637 17.7627v207.587c0 9.80957 7.95312 17.7627 17.7637 17.7627h358.052zM417.264 156.125
h-0.000976562v172.061h-322.525v-172.061h322.526z" />
    <glyph glyph-name="111-coffee" unicode="&#xf16e;" 
d="M418.812 74.4912h-40.3271c-4.45312 -3.30176 -9.07324 -6.45996 -13.8467 -9.47461c37.0703 -10.46 55.8154 -25.5127 55.8154 -44.9736c0 -80.8486 -384.61 -80.8262 -384.61 0c0 19.4619 18.7461 34.5146 55.8164 44.9736
c-56.8945 35.9326 -91.6592 92.9717 -91.6592 154.843c0 9.21973 7.47461 16.6943 16.6963 16.6953h422.905c9.22168 0 16.6963 -7.47559 16.6963 -16.6953c0 -12.0518 -1.31934 -23.9189 -3.86328 -35.4844h42.8691c9.22168 0 16.6963 -7.47559 16.6963 -16.6963
c0 -51.3828 -41.8027 -93.1875 -93.1885 -93.1875zM441.341 150.984c-6.90039 -15.3252 -16.0635 -29.8066 -27.2246 -43.1025c34.4326 0 55.1523 19.1689 62.1221 43.1025h-34.8975zM385.46 20.0498c-6.18457 4.94629 -25.8857 14.5596 -70.5762 21.1113
c-56.5723 -19.6631 -119.475 -18.7842 -173.471 0c-44.6904 -6.55078 -64.3896 -16.165 -70.5762 -21.1113c45.4902 -36.3047 271.031 -34.79 314.623 0zM307.407 73.9482c59.3799 21.7803 106.687 68.999 114.431 129.217h-387.377
c7.22461 -56.1816 50.5312 -105.779 114.43 -129.217c50.2168 -18.4092 108.196 -18.4482 158.517 0zM191.344 364.959c39.084 -16.5293 39.4971 -71.8682 0.62793 -88.9609c-8.44238 -3.71191 -18.293 0.12207 -22.0049 8.56152
c-3.71191 8.44141 0.12207 18.293 8.5625 22.0059c12.042 5.2959 11.9141 22.5195 -0.194336 27.6406c-39.0713 16.5273 -39.5068 71.8652 -0.62793 88.9619c8.44043 3.71191 18.293 -0.121094 22.0049 -8.56152c3.71191 -8.44141 -0.12207 -18.293 -8.56152 -22.0059
c-12.041 -5.29395 -11.9141 -22.5205 0.193359 -27.6416zM277.965 364.959c39.083 -16.5293 39.4961 -71.8672 0.62793 -88.9609c-8.44238 -3.71191 -18.293 0.12207 -22.0049 8.56152c-3.71191 8.44141 0.12207 18.293 8.5625 22.0059
c12.042 5.2959 11.9141 22.5195 -0.194336 27.6406c-39.085 16.5332 -39.4932 71.8701 -0.62793 88.9619c8.43945 3.71191 18.293 -0.121094 22.0049 -8.56152c3.71191 -8.44141 -0.12207 -18.293 -8.56152 -22.0059c-12.043 -5.29492 -11.9131 -22.5205 0.193359 -27.6416z
" />
    <glyph glyph-name="170-subtract" unicode="&#xf1a9;" 
d="M493.268 448c10.3457 0 18.7324 -8.38672 18.7334 -18.7324v-474.535c0 -10.3457 -8.38672 -18.7324 -18.7324 -18.7324h-474.536c-10.3457 0 -18.7324 8.38672 -18.7324 18.7314v474.536c0 10.3457 8.38672 18.7324 18.7324 18.7324h474.535zM474.537 -26.5371
h-0.000976562v437.074h-437.073v-437.074h437.074zM374.015 210.732c10.3457 0 18.7324 -8.3877 18.7324 -18.7324s-8.38672 -18.7324 -18.7324 -18.7324h-236.03c-10.3467 0 -18.7324 8.3877 -18.7324 18.7324s8.38672 18.7324 18.7324 18.7324h236.03z" />
    <glyph glyph-name="086-left-arrow-1" unicode="&#xf155;" 
d="M511.293 6.41113c5.00195 -17.5801 -17.8145 -29.1035 -29.0947 -14.9932c-69.6846 87.1689 -115.825 163.237 -235.39 179.376v-66.2646c0 -13.2266 -14.707 -21.207 -25.7959 -13.9941l-213.43 138.829c-10.1143 6.57812 -10.1094 21.4121 0 27.9863l213.43 138.828
c11.0889 7.20996 25.7959 -0.763672 25.7959 -13.9941v-71.9092c52.7256 -7.96094 101.992 -30.0713 143.289 -64.4395c81.6641 -67.9658 93.0039 -140.358 121.195 -239.425zM440.915 96.5273l15.5586 -19.4639c-36.1338 126.977 -127.206 191.909 -228 201.861
c-8.54199 0.84375 -15.0527 8.0293 -15.0527 16.6143v55.873l-166.12 -108.055l166.119 -108.056v53.9248c0 9.22656 7.48926 16.6943 16.6943 16.6943c0.360352 0 0.720703 -0.0117188 1.08301 -0.0351562c81.9688 -5.32422 158.408 -45.1826 209.718 -109.358z" />
    <glyph glyph-name="157-spreadsheet-8" unicode="&#xf19c;" 
d="M494.14 401.506c9.86328 0 17.8604 -7.99707 17.8584 -17.8613v-142.919c0 -9.8623 -7.99609 -17.8594 -17.8604 -17.8594h-20.0166v-222.511c0 -9.86328 -7.99609 -17.8604 -17.8604 -17.8604h-400.522c-9.86328 0 -17.8604 7.99609 -17.8604 17.8604v222.512h-20.0176
c-9.86328 0 -17.8604 7.99609 -17.8604 17.8594v142.918c0 9.86426 7.99707 17.8613 17.8604 17.8613h476.279zM238.291 18.2139h-0.000976562v84.4658h-164.691v-84.4658h164.692zM238.291 138.401h-0.000976562v84.4658h-164.691v-84.4658h164.692zM238.291 258.587
v107.198h-202.57v-107.198h202.57zM438.402 18.2148v84.4658h-164.391v-84.4658h164.391zM438.402 138.401v84.4658h-164.391v-84.4658h164.39h0.000976562zM476.279 258.587v107.198h-202.268v-107.198h202.268z" />
    <glyph glyph-name="206-worldwide" unicode="&#xf1cd;" 
d="M511.996 191.598c0 -0.03125 0.00390625 -0.0664062 0.00390625 -0.0976562c0 -0.0546875 -0.0078125 -0.105469 -0.0078125 -0.160156c-0.171875 -68.1328 -26.7773 -132.164 -74.9727 -180.359c-43.4727 -43.4727 -99.8281 -69.3711 -160.453 -74.1562
c-0.0585938 -0.0078125 -0.113281 -0.0117188 -0.171875 -0.015625c-6.75 -0.53125 -13.5508 -0.808594 -20.3945 -0.808594c-68.3789 0 -132.668 26.6289 -181.02 74.9805c-48.1953 48.1953 -74.8008 112.227 -74.9727 180.359
c0 0.0546875 -0.0078125 0.105469 -0.0078125 0.160156c0 0.0351562 0.00390625 0.0664062 0.00390625 0.0976562c0 0.136719 -0.00390625 0.269531 -0.00390625 0.402344c0 68.3789 26.6289 132.668 74.9805 181.02s112.641 74.9805 181.02 74.9805
s132.668 -26.6289 181.02 -74.9805s74.9805 -112.641 74.9805 -181.02c0 -0.132812 -0.00390625 -0.265625 -0.00390625 -0.402344zM462.957 100.883c10.4531 23.7227 16.7461 49.2305 18.5195 75.6211h-91.7656c-1.18359 -21.1328 -4.88672 -46.7695 -13.4297 -75.6211
h86.6758zM49.0625 283.16c-10.5938 -24.0312 -16.918 -49.9023 -18.6016 -76.6641h91.7266c1.04297 21.293 4.64062 47.3086 13.3086 76.6641h-86.4336zM270.996 313.152h63.0469c-21.3906 49.9062 -50.1328 86.418 -63.0469 101.426v-101.426zM345.324 283.16h-74.3281
v-76.6641h88.8125c-1.41016 27.3203 -6.84766 53.0938 -14.4844 76.6641zM241.004 313.152v100.777c-8.91406 -10.3633 -25.3086 -30.8711 -41.5312 -58.6836c-6.98438 -11.9766 -14.3984 -26.1562 -21.2461 -42.0938h62.7773zM241.004 283.16h-74.1055
c-7.59766 -23.2891 -13.2266 -49.1523 -14.6875 -76.6641h88.793v76.6641zM30.5234 176.504c1.77344 -26.3906 8.06641 -51.8984 18.5195 -75.6211h86.6875c-6.94141 23.2617 -11.9766 48.6992 -13.4453 75.6211h-91.7617zM152.316 176.504
c1.61328 -26.8828 7.14062 -52.3086 14.7969 -75.6211h73.8906v75.6211h-88.6875zM241.004 70.8945h-62.4883c21.3047 -49.3203 49.625 -85.6719 62.4883 -100.789v100.789zM270.996 70.8945v-101.133c8.89844 10.4609 25.3164 31.207 41.5586 59.293
c6.90234 11.9336 14.2227 26.0234 21 41.8398h-62.5586zM270.996 100.883h73.8789c7.51953 23.0156 13.1445 48.5273 14.793 75.6211h-88.6719v-75.6211zM389.84 206.496h91.6992c-1.68359 26.7617 -8.00781 52.6328 -18.6016 76.6641h-86.1719
c7.54297 -25.5938 11.9062 -51.1953 13.0742 -76.6641zM446.883 313.152c-8.8125 13.8242 -19.1953 26.7891 -31.0703 38.6602c-29.1289 29.1289 -64.8125 49.3203 -103.723 59.2109c9.31641 -12.6484 20.0664 -28.6992 30.625 -47.6875
c9.26953 -16.6719 17.1836 -33.4141 23.75 -50.1836h80.418zM96.1875 351.812c-11.875 -11.8711 -22.2578 -24.8359 -31.0703 -38.6602h80.6641c7.21484 18.4336 16.4453 37.8516 28.2422 57.9844c9.20703 15.7148 18.3945 29.168 26.4453 40.0352
c-39.125 -9.83984 -75.0117 -30.0898 -104.281 -59.3594zM65.0898 70.8945c8.81641 -13.8438 19.2109 -26.8203 31.0977 -38.707c29.3164 -29.3164 65.2695 -49.5859 104.469 -59.4102c-8.10156 10.9961 -17.3633 24.6445 -26.6523 40.5859
c-9.26172 15.8984 -19.207 35.3516 -27.9141 57.5312h-81zM415.812 32.1875c11.8867 11.8867 22.2812 24.8633 31.0977 38.7031h-80.9297c-7.15625 -18.3164 -16.2852 -37.6094 -27.9102 -57.6211c-9.21094 -15.8594 -18.4023 -29.4453 -26.4531 -40.4219
c39.0938 9.85156 74.9492 30.0898 104.195 59.3398zM415.812 32.1875z" />
    <glyph glyph-name="198-heart" unicode="&#xf1c5;" 
d="M256 -7.51562c-7.28906 0 -14.3164 2.64062 -19.793 7.4375c-20.6836 18.0859 -40.625 35.082 -58.2188 50.0742l-0.0898438 0.078125c-51.582 43.957 -96.125 81.918 -127.117 119.312c-34.6445 41.8047 -50.7812 81.4414 -50.7812 124.742
c0 42.0703 14.4258 80.8828 40.6172 109.293c26.5039 28.7461 62.8711 44.5781 102.414 44.5781c29.5547 0 56.6211 -9.34375 80.4453 -27.7695c12.0234 -9.30078 22.9219 -20.6836 32.5234 -33.9609c9.60547 13.2773 20.5 24.6602 32.5273 33.9609
c23.8242 18.4258 50.8906 27.7695 80.4453 27.7695c39.5391 0 75.9102 -15.832 102.414 -44.5781c26.1914 -28.4102 40.6133 -67.2227 40.6133 -109.293c0 -43.3008 -16.1328 -82.9375 -50.7773 -124.738c-30.9922 -37.3984 -75.5312 -75.3555 -127.105 -119.309
c-17.625 -15.0156 -37.5977 -32.0391 -58.3281 -50.168c-5.47266 -4.78906 -12.5039 -7.42969 -19.7891 -7.42969zM143.031 418.008c-31.0664 0 -59.6055 -12.3984 -80.3672 -34.9141c-21.0703 -22.8555 -32.6758 -54.4492 -32.6758 -88.9648
c0 -36.418 13.5352 -68.9883 43.8828 -105.605c29.332 -35.3945 72.9609 -72.5742 123.477 -115.625l0.09375 -0.078125c17.6602 -15.0508 37.6797 -32.1133 58.5156 -50.332c20.9609 18.2539 41.0117 35.3438 58.707 50.418
c50.5117 43.0508 94.1367 80.2227 123.469 115.617c30.3438 36.6172 43.8789 69.1875 43.8789 105.605c0 34.5156 -11.6055 66.1094 -32.6758 88.9648c-20.7578 22.5156 -49.3008 34.9141 -80.3633 34.9141c-22.7578 0 -43.6523 -7.23438 -62.1016 -21.5
c-16.4414 -12.7188 -27.8945 -28.7969 -34.6094 -40.0469c-3.45312 -5.78516 -9.53125 -9.23828 -16.2617 -9.23828s-12.8086 3.45312 -16.2617 9.23828c-6.71094 11.25 -18.1641 27.3281 -34.6094 40.0469c-18.4492 14.2656 -39.3438 21.5 -62.0977 21.5zM143.031 418.008z
" />
    <glyph glyph-name="147-magnet" unicode="&#xf192;" 
d="M479.053 430.14c0 -10.0332 0.0126953 -212.334 0.0117188 -271.074c0 -122.999 -100.066 -223.065 -223.065 -223.065c-122.997 0 -223.065 100.066 -223.063 223.066v271.073c0 9.86328 7.99609 17.8604 17.8604 17.8604h118.952
c9.86328 0 17.8604 -7.99609 17.8604 -17.8604v-271.073c0 -37.7197 30.6816 -68.4062 68.3936 -68.4062c37.71 0 68.3916 30.6865 68.3916 68.4062c0 19.4951 -0.0117188 262.6 -0.0117188 271.073c0 9.86328 7.99609 17.8604 17.8604 17.8604h118.951
c9.8623 0 17.8594 -7.99609 17.8594 -17.8604zM360.102 412.279v-83.2246h83.2305v83.2246h-83.2305zM68.6553 412.279v-83.2246h83.2295v83.2246h-83.2295zM443.343 159.065h0.000976562v134.269h-83.2295v-134.269c0 -57.416 -46.7041 -104.127 -104.113 -104.127
s-104.115 46.7119 -104.115 104.127v134.269h-83.2295v-134.269c0 -103.303 84.043 -187.345 187.344 -187.345c103.302 0 187.344 84.041 187.343 187.345z" />
    <glyph glyph-name="193-ui-3" unicode="&#xf1c0;" 
d="M459.25 321.275c3.17285 -3.17188 4.88965 -7.51562 4.89062 -11.8135v-356.767c0 -9.22168 -7.47461 -16.6963 -16.6953 -16.6963h-382.89c-9.2207 0 -16.6953 7.47559 -16.6953 16.6963v478.608c0 9.22168 7.47461 16.6963 16.6943 16.6963h261.049
c4.32617 0 8.65723 -1.73633 11.8086 -4.88672zM342.303 390.994v-64.8291h64.8271zM430.749 -30.6084v323.383h-105.142c-9.22168 0 -16.6963 7.47461 -16.6963 16.6953v105.139h-227.66v-445.217h349.498zM383.862 105.577
c7.80078 -6.20605 8.45215 -17.8311 1.41309 -24.8691l-48.4395 -48.4385c-7.01953 -7.02148 -18.6426 -6.41797 -24.8711 1.41211l-76.1924 95.7793c-3.69434 4.64062 -4.53223 10.7021 -2.65918 15.9814c-28.4629 -12.9834 -63.9531 -8.30469 -88.2373 15.9824
c-30.6699 30.668 -30.6699 80.5723 0 111.241c30.7441 30.7461 80.5029 30.7412 111.242 0c23.8232 -23.8223 29.1299 -59.2461 15.9424 -88.25c5.28906 1.89062 11.3672 1.05762 16.0215 -2.64453zM232.507 185.036c17.6504 17.6504 17.6504 46.3701 0 64.0186
c-17.6494 17.6514 -46.3721 17.6494 -64.0195 0c-17.6504 -17.6494 -17.6494 -46.3691 0 -64.0186c17.6484 -17.6504 46.3701 -17.6514 64.0195 0zM326.449 69.1064l21.9844 21.9844l-69.4785 55.2715l-7.77734 -7.77734z" />
    </font>
</defs>
</svg>
